Joanne Shaw Taylor - Reckless Heart- Жанр: Blues Rock
Носитель: WEB
Год издания: 2019
Издатель-лейбл: Silvertone
Страна исполнителя: UK
Аудиокодек: FLAC (*.flac)
Тип рипа: tracks
Битрейт аудио: lossless
Продолжительность: 00:46:51
Источник: Сеть
Наличие сканов: нет

Треклист:
01. In the Mood (3:45)
02. All My Love (3:38)
03. The Best Thing (4:52)
04. Bad Love (4:07)
05. Creepin' (3:41)
06. I've Been Loving You Too Long (6:37)
07. Reckless Heart (4:28)
08. Break My Heart Anyway (3:23)
09. New 89 (3:48)
10. Jake's Boogie (3:03)
11. I'm Only Lonely (5:28)

auCDtect

CUE Corrector v. 8.3.5 / b. 906 (Mar. 02, 2019)————————————————————————————————————————————————————————————————————————Joanne Shaw Taylor / Reckless Heart
Folder: Joanne Shaw Taylor - 2019 - Reckless Heart [FLAC]Audio files: 01 In the Mood.flac [03:45.133; FLAC • 1039 kbps • 16 bit \ 44100 Hz • stereo; 27.89 MB (29 247 397 B)] 02 All My Love.flac [03:38.200; FLAC • 976 kbps • 16 bit \ 44100 Hz • stereo; 25.39 MB (26 627 365 B)] 03 The Best Thing.flac [04:52.360; FLAC • 956 kbps • 16 bit \ 44100 Hz • stereo; 33.33 MB (34 952 545 B)] 04 Bad Love.flac [04:07.400; FLAC • 1016 kbps • 16 bit \ 44100 Hz • stereo; 29.97 MB (31 429 884 B)] 05 Creepin'.flac [03:41.440; FLAC • 998 kbps • 16 bit \ 44100 Hz • stereo; 26.34 MB (27 623 801 B)] 06 I've Been Loving You Too Long.flac [06:37.133; FLAC • 947 kbps • 16 bit \ 44100 Hz • stereo; 44.87 MB (47 054 304 B)] 07 Reckless Heart.flac [04:28.133; FLAC • 853 kbps • 16 bit \ 44100 Hz • stereo; 27.28 MB (28 605 050 B)] 08 Break My Heart Anyway.flac [03:22.840; FLAC • 908 kbps • 16 bit \ 44100 Hz • stereo; 21.97 MB (23 040 932 B)] 09 New 89.flac [03:47.920; FLAC • 998 kbps • 16 bit \ 44100 Hz • stereo; 27.13 MB (28 444 873 B)] 10 Jake's Boogie.flac [03:02.640; FLAC • 669 kbps • 16 bit \ 44100 Hz • stereo; 14.57 MB (15 278 670 B)] 11 I'm Only Lonely.flac [05:28.413; FLAC • 853 kbps • 16 bit \ 44100 Hz • stereo; 33.42 MB (35 038 260 B)]
Accuracy: -m0
File 01 In the Mood - 100% CDDA [03:45:10]File 02 All My Love - 100% CDDA [03:38:15]File 03 The Best Thing - 100% CDDA [04:52:27]File 04 Bad Love - 100% CDDA [04:07:30]File 05 Creepin' - 99% CDDA [03:41:33]File 06 I've Been Loving You Too Long - 100% CDDA [06:37:10]File 07 Reckless Heart - 100% CDDA [04:28:10]File 08 Break My Heart Anyway - 99% CDDA [03:22:63]File 09 New 89 - 100% CDDA [03:47:69]File 10 Jake's Boogie - 100% CDDA [03:02:48]File 11 I'm Only Lonely - 100% CDDA [05:28:31]————— Summary: —————These tracks looks like CDDA with probability 100%.————————————————————————————————————————————————————————————————————————
ANALYZER: auCDtect: CD records authenticity detector, version 0.8.2 Copyright (c) 2004 Oleg Berngardt. All rights reserved. Copyright (c) 2004 Alexander Djourik. All rights reserved.
Time elapsed: 2 m 10 sLog created at March 14, 2019 20:16:48
=== C649D8D9CD4CE0CC161751F2E6C98F62A519C39AA6824677E28C3B7D1D730120 ===

CUETools

[CUETools log; Date: 14.03.2019 20:14:55; Version: 2.1.6]Padded some input files to a frame boundary.[CTDB TOCID: UVtaQbwnLUjdwehZOBHhg.iIRTk-] disk not present in database.[AccurateRip ID: 001325bd-00a6cc1c-8c0afb0b] disk not present in database.
Track Peak [ CRC32 ] [W/O NULL] -- 100,0 [B5A81256] [01CD2B4D] 01 100,0 [A4EDBF47] [99C68C53] 02 100,0 [5E8B187B] [9AF349BC] 03 100,0 [3DB33550] [1484BAFC] 04 100,0 [8A9F8C56] [5808CAFF] 05 100,0 [B8CF1512] [314659FE] 06 100,0 [71E2C511] [68C3C871] 07 100,0 [6C803080] [4E9C16AD] 08 100,0 [9A8AE750] [548BE0D2] 09 100,0 [658EE57C] [80447050] 10 97,8 [2A0F17A0] [5F224C24] 11 100,0 [7E2F6B6C] [4A2F2944]

DR

foobar2000 1.4.2 / Замер динамического диапазона (DR) 1.1.1Дата отчёта:  2019-03-14 20:12:57
--------------------------------------------------------------------------------Анализ: Joanne Shaw Taylor / Reckless Heart--------------------------------------------------------------------------------
DR Пики RMS Продолжительность трека--------------------------------------------------------------------------------DR6 0.00 дБ -7.14 дБ 3:45 01-In the MoodDR6 0.00 дБ -8.59 дБ 3:38 02-All My LoveDR7 0.00 дБ -9.28 дБ 4:52 03-The Best ThingDR6 0.00 дБ -7.14 дБ 4:07 04-Bad LoveDR6 0.00 дБ -7.88 дБ 3:41 05-Creepin'DR7 0.00 дБ -8.98 дБ 6:37 06-I've Been Loving You Too LongDR7 0.00 дБ -8.92 дБ 4:28 07-Reckless HeartDR8 0.00 дБ -10.08 дБ 3:23 08-Break My Heart AnywayDR7 0.00 дБ -8.62 дБ 3:48 09-New 89DR10 -0.19 дБ -15.58 дБ 3:03 10-Jake's BoogieDR8 0.00 дБ -10.97 дБ 5:28 11-I'm Only Lonely--------------------------------------------------------------------------------
Количество треков: 11Реальные значения DR: DR7
Частота: 44100 ГцКаналов: 2Разрядность: 16Битрейт: 849 кбит/сКодек: FLAC================================================================================

If you like the topic, please click share to help develop our site.

To download the file disable ad blocking, and reload the page.

disable adblock How to disable ad blocking?

Download by magnet link 312 MB Download Torrent

Login using:

Similar topics

(Blues-rock) [WEB] Savoy Brown - City Night - 2019, FLAC (tracks), lossless
 359 MB   0 | 0   15-Jun-19 04:15   0


   
Current time is: 20-Jun 19:08 :: All times are UTC + 3