-WAGNERAMA
(feat. Mike Kilian)
Haunted

-Genre: Pomp-Rock, Sympho-Rock
Originally released: 1994
Country: Germany
CD: Germany, MCA, MCD 32999
Audio: FLAC (image+.cue)
Total time: 52:50
Source: own rip
Scans: 600 dpi .jpg
-01. Fireball (4:08)
02.
(3:51)
03. Evil Moon (0:39)
04. Death Valley Cowboys (4:26)
05.
(4:10)
06.
(5:12)
07.
(4:29)
08. Degrees Of Freedom (1:06)
09. Space Cadets (March Of The) (4:49)
10. The Prisoner (1:57)
11. No Way Out (4:27)
12.
(4:44)
13. Angel Patrol (4:39)
14.
(4:05)
-

Log

Exact Audio Copy V1.3 from 2. September 2016
EAC extraction logfile from 16. March 2019, 17:22
Wagnerama feat. Mike Kilian / Haunted (MCD 32999)
Used drive : HL-DT-STDVDRAM GE20NU11 Adapter: 1 ID: 0
Read mode : SecureUtilize accurate stream : YesDefeat audio cache : YesMake use of C2 pointers : No
Read offset correction : 667Overread into Lead-In and Lead-Out : NoFill up missing offset samples with silence : YesDelete leading and trailing silent blocks : NoNull samples used in CRC calculations : YesUsed interface : Native Win32 interface for Win NT & 2000
Used output format : User Defined EncoderSelected bitrate : 896 kBit/sQuality : HighAdd ID3 tag : NoCommand line compressor : C:\Program Files\Exact Audio Copy\Flac\flac.exeAdditional command line options : -V -8 -T "Date=%year%" -T "Genre=%genre%" %source%
TOC of the extracted CD
Track | Start | Length | Start sector | End sector --------------------------------------------------------- 1 | 0:00.00 | 4:08.37 | 0 | 18636 2 | 4:08.37 | 3:51.68 | 18637 | 36029 3 | 8:00.30 | 0:39.50 | 36030 | 39004 4 | 8:40.05 | 4:26.10 | 39005 | 58964 5 | 13:06.15 | 4:10.67 | 58965 | 77781 6 | 17:17.07 | 5:12.53 | 77782 | 101234 7 | 22:29.60 | 4:29.52 | 101235 | 121461 8 | 26:59.37 | 1:06.43 | 121462 | 126454 9 | 28:06.05 | 4:49.72 | 126455 | 148201 10 | 32:56.02 | 1:57.33 | 148202 | 157009 11 | 34:53.35 | 4:27.30 | 157010 | 177064 12 | 39:20.65 | 4:44.27 | 177065 | 198391 13 | 44:05.17 | 4:39.10 | 198392 | 219326 14 | 48:44.27 | 4:05.55 | 219327 | 237756
Range status and errors
Selected range
Filename Z:\OdW\Wagnerama - 1994 - Haunted (MCD 32999)\Wagnerama feat. Mike Kilian - Haunted (MCD 32999).wav
Peak level 98.6 % Extraction speed 6.8 X Range quality 100.0 % Test CRC B3EE9A87 Copy CRC B3EE9A87 Copy OK
No errors occurred
AccurateRip summary
Track 1 accurately ripped (confidence 6) [4580AA4E] (AR v2)Track 2 accurately ripped (confidence 6) [08BCF84A] (AR v2)Track 3 accurately ripped (confidence 6) [626F241D] (AR v2)Track 4 accurately ripped (confidence 6) [31D85725] (AR v2)Track 5 accurately ripped (confidence 6) [5289A2A5] (AR v2)Track 6 accurately ripped (confidence 6) [68ADF2FE] (AR v2)Track 7 accurately ripped (confidence 6) [F3F9F147] (AR v2)Track 8 accurately ripped (confidence 6) [2BCCDDD9] (AR v2)Track 9 accurately ripped (confidence 6) [9F43772A] (AR v2)Track 10 accurately ripped (confidence 6) [1F71C8CC] (AR v2)Track 11 accurately ripped (confidence 6) [3BA574C7] (AR v2)Track 12 accurately ripped (confidence 6) [6F532BBC] (AR v2)Track 13 accurately ripped (confidence 6) [6111A504] (AR v2)Track 14 accurately ripped (confidence 6) [1B30D5A2] (AR v2)
All tracks accurately ripped
End of status report
---- CUETools DB Plugin V2.1.6
[CTDB TOCID: j03H0_X1Oporz14VVFW46fPuoOY-] foundSubmit result: already submittedTrack | CTDB Status 1 | (16/16) Accurately ripped 2 | (16/16) Accurately ripped 3 | (16/16) Accurately ripped 4 | (16/16) Accurately ripped 5 | (16/16) Accurately ripped 6 | (16/16) Accurately ripped 7 | (16/16) Accurately ripped 8 | (16/16) Accurately ripped 9 | (16/16) Accurately ripped 10 | (16/16) Accurately ripped 11 | (16/16) Accurately ripped 12 | (16/16) Accurately ripped 13 | (15/16) Accurately ripped 14 | (16/16) Accurately ripped
==== Log checksum C714D31279E1BBA12852A6928B9FFCA8D692F2ADF9EB50A534FFB6D255EF681D ====

.cue

REM GENRE RockREM DATE 1994REM DISCID CB0C620EREM COMMENT "ExactAudioCopy v1.3"PERFORMER "Wagnerama feat. Mike Kilian"TITLE "Haunted (MCD 32999)"REM COMPOSER ""FILE "Wagnerama feat. Mike Kilian - Haunted (MCD 32999).flac" WAVE  TRACK 01 AUDIO    TITLE "Fireball"    PERFORMER "Wagnerama feat. Mike Kilian"    REM COMPOSER ""    INDEX 01 00:00:00  TRACK 02 AUDIO    TITLE "The Pilgrim"    PERFORMER "Wagnerama feat. Mike Kilian"    REM COMPOSER ""    INDEX 01 04:08:37  TRACK 03 AUDIO    TITLE "Evil Moon"    PERFORMER "Wagnerama feat. Mike Kilian"    REM COMPOSER ""    INDEX 01 08:00:30  TRACK 04 AUDIO    TITLE "Death Valley Cowboys"    PERFORMER "Wagnerama feat. Mike Kilian"    REM COMPOSER ""    INDEX 01 08:40:05  TRACK 05 AUDIO    TITLE "Stand Up For Your Children"    PERFORMER "Wagnerama feat. Mike Kilian"    REM COMPOSER ""    INDEX 00 13:04:50    INDEX 01 13:06:15  TRACK 06 AUDIO    TITLE "Ghost Of Glory"    PERFORMER "Wagnerama feat. Mike Kilian"    REM COMPOSER ""    INDEX 01 17:17:07  TRACK 07 AUDIO    TITLE "Sunrise"    PERFORMER "Wagnerama feat. Mike Kilian"    REM COMPOSER ""    INDEX 01 22:29:60  TRACK 08 AUDIO    TITLE "Degrees Of Freedom"    PERFORMER "Wagnerama feat. Mike Kilian"    REM COMPOSER ""    INDEX 01 26:59:37  TRACK 09 AUDIO    TITLE "Space Cadets (March Of The)"    PERFORMER "Wagnerama feat. Mike Kilian"    REM COMPOSER ""    INDEX 01 28:06:05  TRACK 10 AUDIO    TITLE "The Prisoner"    PERFORMER "Wagnerama feat. Mike Kilian"    REM COMPOSER ""    INDEX 00 32:54:20    INDEX 01 32:56:02  TRACK 11 AUDIO    TITLE "No Way Out"    PERFORMER "Wagnerama feat. Mike Kilian"    REM COMPOSER ""    INDEX 01 34:53:35  TRACK 12 AUDIO    TITLE "Ice Age"    PERFORMER "Wagnerama feat. Mike Kilian"    REM COMPOSER ""    INDEX 00 39:19:32    INDEX 01 39:20:65  TRACK 13 AUDIO    TITLE "Angel Patrol"    PERFORMER "Wagnerama feat. Mike Kilian"    REM COMPOSER ""    INDEX 00 44:03:30    INDEX 01 44:05:17  TRACK 14 AUDIO    TITLE "Stay By My Side"    PERFORMER "Wagnerama feat. Mike Kilian"    REM COMPOSER ""    INDEX 00 48:42:52    INDEX 01 48:44:27

.accurip

[CUETools log; Date: 16.03.2019 17:57:38; Version: 2.1.5][CTDB TOCID: j03H0_X1Oporz14VVFW46fPuoOY-] found.Track | CTDB Status  1   | (16/16) Accurately ripped  2   | (16/16) Accurately ripped  3   | (16/16) Accurately ripped  4   | (16/16) Accurately ripped  5   | (16/16) Accurately ripped  6   | (16/16) Accurately ripped  7   | (16/16) Accurately ripped  8   | (16/16) Accurately ripped  9   | (16/16) Accurately ripped 10   | (16/16) Accurately ripped 11   | (16/16) Accurately ripped 12   | (16/16) Accurately ripped 13   | (15/16) Accurately ripped 14   | (16/16) Accurately ripped[AccurateRip ID: 001a344c-01193d2d-cb0c620e] found.Track   [  CRC   |   V2   ] Status 01     [fa3806d2|4580aa4e] (02+06/10) Accurately ripped 02     [d460d907|08bcf84a] (02+06/10) Accurately ripped 03     [f63812a5|626f241d] (02+06/10) Accurately ripped 04     [858bf477|31d85725] (02+06/10) Accurately ripped 05     [cec1dd31|5289a2a5] (02+06/10) Accurately ripped 06     [5ac9978c|68adf2fe] (02+06/10) Accurately ripped 07     [7bb0bba3|f3f9f147] (02+06/10) Accurately ripped 08     [f955cb83|2bccddd9] (02+06/10) Accurately ripped 09     [ebb5c176|9f43772a] (02+06/10) Accurately ripped 10     [88a4d8ca|1f71c8cc] (02+06/10) Accurately ripped 11     [4c302aa8|3ba574c7] (02+06/10) Accurately ripped 12     [78056cba|6f532bbc] (02+06/10) Accurately ripped 13     [1a785c53|6111a504] (02+06/10) Accurately ripped 14     [0e9f9164|1b30d5a2] (02+06/10) Accurately rippedOffsetted by -1199: 01     [ccdf5451] (00/10) No match (V2 was not tested) 02     [35eb5224] (00/10) No match (V2 was not tested) 03     [5588ba52] (00/10) No match (V2 was not tested) 04     [409385cb] (00/10) No match (V2 was not tested) 05     [944dfb59] (00/10) No match (V2 was not tested) 06     [969d2e50] (00/10) No match (V2 was not tested) 07     [ba0ed283] (00/10) No match (V2 was not tested) 08     [cd04a887] (00/10) No match (V2 was not tested) 09     [dc3be601] (00/10) No match (V2 was not tested) 10     [c2dbde9f] (00/10) No match (V2 was not tested) 11     [bb621775] (00/10) No match (V2 was not tested) 12     [6286cede] (00/10) No match (V2 was not tested) 13     [84e54181] (00/10) No match (V2 was not tested) 14     [b02e7204] (00/10) No match (V2 was not tested)
Track Peak [ CRC32 ] [W/O NULL] [ LOG ] -- 98,6 [B3EE9A87] [D54D0326] CRC32 01 98,2 [04095DB7] [5D95AD02] 02 98,0 [36E0B2E0] [7D10E5DE] 03 61,8 [49B951FA] [2AA0D3A6] 04 98,2 [E7BD1DCC] [C775554C] 05 98,6 [1D628D4A] [471E0C9E] 06 98,0 [ADB03E4F] [70F44176] 07 98,4 [32E1D3CD] [608E5A78] 08 75,6 [789C0BE7] [4920AE70] 09 98,2 [63FD8B43] [611A4705] 10 86,6 [DC8DA178] [087BE8B3] 11 98,3 [B71B1FB0] [D3D689C8] 12 98,1 [653DDB24] [1A3A956E] 13 98,0 [EB822B9A] [8313565F] 14 98,2 [9E4B6B67] [A38928FD]
-

CD, Matrix, Back




If you like the topic, please click share to help develop our site.

To download the file disable ad blocking, and reload the page.

disable adblock How to disable ad blocking?

Download by magnet link 382 MB Download Torrent

Login using:

Similar topics

(Hard Rock) Tarque - Tarque - 2018, MP3, 320 kbps
 90 MB   0 | 0   06-Oct-18 11:00   252
(Comedy Rock) Tenacious D - Post-Apocalypto - 2018, MP3, 320 kbps
 71 MB   0 | 0   02-Nov-18 11:00   86


   
Current time is: 20-Jun 18:12 :: All times are UTC + 3