Rod Stewart / Storyteller - The Complete Anthology: 1964–1990
Жанр: Pop Rock, Rock, Blues Rock, Rock & Roll
Носитель: CD
Страна-производитель диска (релиза): USA
Год издания: 1989
Издатель (лейбл): Warner Bros. Records
Номер по каталогу: 9 25987-2
Аудиокодек: FLAC (*.flac)
Тип рипа: image+.cue
Битрейт аудио: lossless
Продолжительность: 3:57:31
Источник: brookman
Наличие сканов в содержимом раздачи: да

CD1

01. Good Morning Little Schoolgirl
02. Can I Get A Witness? (With The Steampacket)
03. Shake (With Brian Auger & The Trinity)
04. So Much To Say
05. Little Miss Understood
06. I've Been Drinking (With The Jeff Beck Group)
07. I Ain't Superstitious (With The Jeff Beck Group)
08. Shapes Of Things (With The Jeff Beck Group)
09. In A Broken Dream (With Python Lee Jackson)
10. Street Fighting Man
11. Handbags & Gladrags
12. Gasoline Alley
13. Cut Across Shorty
14. Country Comforts
15. It's All Over Now
16. Sweet Lady Mary (With The Faces)
17. Had Me A Real Good Time (With The Faces)

Лог создания рипа

Exact Audio Copy V1.0 beta 3 from 29. August 2011
EAC extraction logfile from 25. February 2019, 14:11
Rod Stewart / Storyteller: The Complete Anthology 1964-1990, Disc 1
Used drive : PIONEER BD-RW BDR-TD03 Adapter: 0 ID: 1
Read mode : SecureUtilize accurate stream : YesDefeat audio cache : YesMake use of C2 pointers : No
Read offset correction : 667Overread into Lead-In and Lead-Out : NoFill up missing offset samples with silence : YesDelete leading and trailing silent blocks : NoNull samples used in CRC calculations : YesUsed interface : Native Win32 interface for Win NT & 2000
Used output format : User Defined EncoderSelected bitrate : 768 kBit/sQuality : HighAdd ID3 tag : NoCommand line compressor : C:\Program Files (x86)\Exact Audio Copy\FLAC\FLAC.EXEAdditional command line options : -6 -V -T "ARTIST=%artist%" -T "TITLE=%title%" -T "ALBUM=%albumtitle%" -T "DATE=%year%" -T "TRACKNUMBER=%tracknr%" -T "GENRE=%genre%" -T "COMMENT=%comment%" -T "BAND=%albuminterpret%" -T "ALBUMARTIST=%albuminterpret%" -T "COMPOSER=%composer%" %haslyrics%--tag-from-file=LYRICS="%lyricsfile%"%haslyrics% -T "DISCNUMBER=%cdnumber%" -T "TOTALDISCS=%totalcds%" -T "TOTALTRACKS=%numtracks%" %hascover%--picture="%coverfile%"%hascover% %source% -o %dest%
TOC of the extracted CD
Track | Start | Length | Start sector | End sector --------------------------------------------------------- 1 | 0:00.32 | 2:08.40 | 32 | 9671 2 | 2:08.72 | 3:35.53 | 9672 | 25849 3 | 5:44.50 | 2:50.17 | 25850 | 38616 4 | 8:34.67 | 3:14.55 | 38617 | 53221 5 | 11:49.47 | 3:38.28 | 53222 | 69599 6 | 15:28.00 | 3:19.32 | 69600 | 84556 7 | 18:47.32 | 4:55.60 | 84557 | 106741 8 | 23:43.17 | 3:19.55 | 106742 | 121721 9 | 27:02.72 | 3:41.00 | 121722 | 138296 10 | 30:43.72 | 5:06.55 | 138297 | 161301 11 | 35:50.52 | 4:24.43 | 161302 | 181144 12 | 40:15.20 | 4:04.35 | 181145 | 199479 13 | 44:19.55 | 6:31.52 | 199480 | 228856 14 | 50:51.32 | 4:45.43 | 228857 | 250274 15 | 55:37.00 | 6:23.32 | 250275 | 279031 16 | 62:00.32 | 5:50.45 | 279032 | 305326 17 | 67:51.02 | 5:53.70 | 305327 | 331871
Range status and errors
Selected range
Filename C:\Users\Deris\Desktop\kpnemo.eu\Storyteller\CD1\Rod Stewart - Storyteller- The Complete Anthology 1964-1990, Disc 1.wav
Peak level 100.0 % Extraction speed 5.1 X Range quality 100.0 % Test CRC 85C51997 Copy CRC 85C51997 Copy OK
No errors occurred
AccurateRip summary
Track 1 accurately ripped (confidence 66) [9DBF7189] (AR v2)Track 2 accurately ripped (confidence 66) [B461A70C] (AR v2)Track 3 accurately ripped (confidence 68) [4DA24BA2] (AR v2)Track 4 accurately ripped (confidence 67) [B4FEECA5] (AR v2)Track 5 accurately ripped (confidence 66) [3D2EECCB] (AR v2)Track 6 accurately ripped (confidence 64) [CF960905] (AR v2)Track 7 accurately ripped (confidence 66) [5A8B84B4] (AR v2)Track 8 accurately ripped (confidence 67) [33DBBE41] (AR v2)Track 9 accurately ripped (confidence 69) [C5CAF37B] (AR v2)Track 10 accurately ripped (confidence 68) [2AD417E1] (AR v2)Track 11 accurately ripped (confidence 69) [5B283A6E] (AR v2)Track 12 accurately ripped (confidence 66) [FCA0CD2D] (AR v2)Track 13 accurately ripped (confidence 66) [4D55BBBC] (AR v2)Track 14 accurately ripped (confidence 67) [1EA4369F] (AR v2)Track 15 accurately ripped (confidence 66) [D33DA564] (AR v2)Track 16 accurately ripped (confidence 65) [63F6DCA2] (AR v2)Track 17 accurately ripped (confidence 63) [9ADFE532] (AR v2)
All tracks accurately ripped
End of status report
---- CUETools DB Plugin V2.1.3
[CTDB TOCID: XAneBMI.TczQ8H5NrRU6tNZr798-] found[abd06ff1] (133/146) No match[5db396dd] (001/146) Accurately ripped[9ceae1fe] (001/146) Accurately ripped[600e76bb] (001/146) Accurately ripped[1543ab19] (001/146) Accurately ripped[d8c4352a] (001/146) Accurately ripped[d1b66a0b] (001/146) Accurately ripped[f64b9e6e] (001/146) Accurately ripped[034534b0] (001/146) Accurately ripped[a3ad874c] (001/146) Accurately ripped[74d699fc] (001/146) Accurately ripped[0ec3c054] (001/146) Accurately ripped[318f78f1] (001/146) Accurately ripped[2c0992ad] (001/146) Accurately ripped
==== Log checksum 2564C3AB0FDE67A89CA9EA76B062934A88A56D4E758475B1DC065BC6E7EE338B ====

Содержание индексной карты (.CUE)

REM GENRE RockREM DATE 1989REM DISCID CC114811REM COMMENT "ExactAudioCopy v1.0b3"PERFORMER "Rod Stewart"TITLE "Storyteller: The Complete Anthology 1964-1990, Disc 1"FILE "Rod Stewart - Storyteller- The Complete Anthology 1964-1990, Disc 1.flac" WAVE  TRACK 01 AUDIO    TITLE "Good Morning Little Schoolgirl"    PERFORMER "Rod Stewart"    INDEX 00 00:00:00    INDEX 01 00:00:32  TRACK 02 AUDIO    TITLE "Can I Get a Witness?"    PERFORMER "Rod Stewart"    INDEX 00 02:07:10    INDEX 01 02:08:72  TRACK 03 AUDIO    TITLE "Shake"    PERFORMER "Rod Stewart"    INDEX 00 05:43:30    INDEX 01 05:44:50  TRACK 04 AUDIO    TITLE "So Much to Say"    PERFORMER "Rod Stewart"    INDEX 00 08:33:65    INDEX 01 08:34:67  TRACK 05 AUDIO    TITLE "Little Miss Understood"    PERFORMER "Rod Stewart"    INDEX 00 11:48:15    INDEX 01 11:49:47  TRACK 06 AUDIO    TITLE "I've Been Drinking"    PERFORMER "Rod Stewart"    INDEX 00 15:27:16    INDEX 01 15:28:00  TRACK 07 AUDIO    TITLE "I Ain't Superstitious"    PERFORMER "Rod Stewart"    INDEX 00 18:45:70    INDEX 01 18:47:32  TRACK 08 AUDIO    TITLE "Shapes of Things"    PERFORMER "Rod Stewart"    INDEX 00 23:41:58    INDEX 01 23:43:17  TRACK 09 AUDIO    TITLE "In a Broken Dream"    PERFORMER "Rod Stewart"    INDEX 00 27:01:62    INDEX 01 27:02:72  TRACK 10 AUDIO    TITLE "Street Fighting Man"    PERFORMER "Rod Stewart"    INDEX 00 30:42:45    INDEX 01 30:43:72  TRACK 11 AUDIO    TITLE "Handbags and Gladrags"    PERFORMER "Rod Stewart"    INDEX 00 35:49:32    INDEX 01 35:50:52  TRACK 12 AUDIO    TITLE "Gasoline Alley"    PERFORMER "Rod Stewart"    INDEX 00 40:13:00    INDEX 01 40:15:20  TRACK 13 AUDIO    TITLE "Cut Across Shorty"    PERFORMER "Rod Stewart"    INDEX 00 44:17:70    INDEX 01 44:19:55  TRACK 14 AUDIO    TITLE "Country Comforts"    PERFORMER "Rod Stewart"    INDEX 00 50:50:73    INDEX 01 50:51:32  TRACK 15 AUDIO    TITLE "It's All Over Now"    PERFORMER "Rod Stewart"    INDEX 00 55:35:28    INDEX 01 55:37:00  TRACK 16 AUDIO    TITLE "Sweet Lady Mary"    PERFORMER "Rod Stewart"    INDEX 00 61:58:67    INDEX 01 62:00:32  TRACK 17 AUDIO    TITLE "Had Me a Real Good Time"    PERFORMER "Rod Stewart"    INDEX 00 67:49:50    INDEX 01 67:51:02

DR Log

foobar2000 1.3.13 / Замер динамического диапазона (DR) 1.1.1Дата отчёта:  2019-02-26 00:15:32
--------------------------------------------------------------------------------Анализ: Rod Stewart / Storyteller: The Complete Anthology 1964-1990, Disc 1--------------------------------------------------------------------------------
DR Пики RMS Продолжительность трека--------------------------------------------------------------------------------DR11 -1.87 дБ -14.99 дБ 2:09 01-Good Morning Little SchoolgirlDR12 -2.06 дБ -15.42 дБ 3:36 02-Can I Get a Witness?DR8 -3.61 дБ -13.27 дБ 2:50 03-ShakeDR13 -2.35 дБ -17.40 дБ 3:15 04-So Much to SayDR12 -2.19 дБ -17.76 дБ 3:38 05-Little Miss UnderstoodDR11 -1.91 дБ -15.87 дБ 3:19 06-I've Been DrinkingDR10 -1.88 дБ -14.23 дБ 4:56 07-I Ain't SuperstitiousDR11 -0.01 дБ -13.58 дБ 3:20 08-Shapes of ThingsDR11 -0.46 дБ -14.44 дБ 3:41 09-In a Broken DreamDR10 -2.22 дБ -14.70 дБ 5:07 10-Street Fighting ManDR11 0.00 дБ -16.56 дБ 4:25 11-Handbags and GladragsDR11 -2.73 дБ -16.47 дБ 4:04 12-Gasoline AlleyDR11 -0.17 дБ -13.44 дБ 6:32 13-Cut Across ShortyDR11 -1.19 дБ -14.53 дБ 4:46 14-Country ComfortsDR12 0.00 дБ -13.48 дБ 6:23 15-It's All Over NowDR12 -1.05 дБ -16.56 дБ 5:51 16-Sweet Lady MaryDR12 -0.65 дБ -14.36 дБ 5:54 17-Had Me a Real Good Time--------------------------------------------------------------------------------
Количество треков: 17Реальные значения DR: DR11
Частота: 44100 ГцКаналов: 2Разрядность: 16Битрейт: 795 кбит/сКодек: FLAC================================================================================

CD2

01. Maggie May
02. Mandolin Wind
03. (I Know) I'm Losing You
04. Reason To Believe
05. Every Picture Tells A Story
06. Stay With Me (With Faces)
07. True Blue
08. Angel
09. You Wear It Well
10. I'd Rather Go Blind
11. Twistin' The Night Away
12. What's Made Milwaukee Famous
13. Oh! No Not My Baby
14. Pinball Wizard
15. Sweet Little Rock 'N' Roller
16. Let Me Be Your Car (With Elton John)
17. You Can Make Me Dance, Sing Or Anything (With Faces)

Лог создания рипа

Exact Audio Copy V1.3 from 2. September 2016
EAC extraction logfile from 1. March 2019, 13:15
Rod Stewart / Storyteller (1989; 1989 Warner Bros. USA 9 25987-2) Disc 2
Used drive : PIONEER DVD-RW DVRTD11RS Adapter: 1 ID: 0
Read mode : SecureUtilize accurate stream : YesDefeat audio cache : NoMake use of C2 pointers : No
Read offset correction : 6Overread into Lead-In and Lead-Out : NoFill up missing offset samples with silence : YesDelete leading and trailing silent blocks : NoNull samples used in CRC calculations : YesUsed interface : Native Win32 interface for Win NT & 2000
Used output format : User Defined EncoderSelected bitrate : 768 kBit/sQuality : HighAdd ID3 tag : NoCommand line compressor : C:\Program Files (x86)\Exact Audio Copy\FLAC\FLAC.EXEAdditional command line options : -6 -V -T "ARTIST=%artist%" -T "TITLE=%title%" -T "ALBUM=%albumtitle%" -T "DATE=%year%" -T "TRACKNUMBER=%tracknr%" -T "GENRE=%genre%" -T "COMMENT=%comment%" -T "BAND=%albuminterpret%" -T "ALBUMARTIST=%albuminterpret%" -T "COMPOSER=%composer%" %haslyrics%--tag-from-file=LYRICS="%lyricsfile%"%haslyrics% -T "DISCNUMBER=%cdnumber%" -T "TOTALDISCS=%totalcds%" -T "TOTALTRACKS=%numtracks%" %hascover%--picture="%coverfile%"%hascover% %source% -o %dest%
TOC of the extracted CD
Track | Start | Length | Start sector | End sector --------------------------------------------------------- 1 | 0:00.32 | 5:46.00 | 32 | 25981 2 | 5:46.32 | 5:32.13 | 25982 | 50894 3 | 11:18.45 | 5:21.62 | 50895 | 75031 4 | 16:40.32 | 4:07.00 | 75032 | 93556 5 | 20:47.32 | 5:57.00 | 93557 | 120331 6 | 26:44.32 | 4:39.25 | 120332 | 141281 7 | 31:23.57 | 3:34.50 | 141282 | 157381 8 | 34:58.32 | 4:06.35 | 157382 | 175866 9 | 39:04.67 | 5:03.40 | 175867 | 198631 10 | 44:08.32 | 3:53.28 | 198632 | 216134 11 | 48:01.60 | 3:15.47 | 216135 | 230806 12 | 51:17.32 | 2:53.03 | 230807 | 243784 13 | 54:10.35 | 3:39.02 | 243785 | 260211 14 | 57:49.37 | 3:41.43 | 260212 | 276829 15 | 61:31.05 | 3:46.20 | 276830 | 293799 16 | 65:17.25 | 4:57.22 | 293800 | 316096 17 | 70:14.47 | 4:22.38 | 316097 | 335784
Range status and errors
Selected range
Filename C:\Users\DeRis\Desktop\kpnemo.eu\CD2\Rod Stewart - Storyteller (1989; 1989 Warner Bros. USA 9 25987-2) Disc 2.wav
Peak level 100.0 % Extraction speed 3.8 X Range quality 99.9 % Test CRC BD681001 Copy CRC 58C59F3D Copy OK
No errors occurred
AccurateRip summary
Track 1 cannot be verified as accurate (confidence 53) [0E9C2981], AccurateRip returned [3CD60B5B] (AR v2)Track 2 accurately ripped (confidence 54) [C5784502] (AR v2)Track 3 accurately ripped (confidence 53) [EF670D80] (AR v2)Track 4 accurately ripped (confidence 54) [B21ED9B6] (AR v2)Track 5 accurately ripped (confidence 55) [D539B197] (AR v2)Track 6 accurately ripped (confidence 53) [EDEF70D4] (AR v2)Track 7 accurately ripped (confidence 53) [81592DCB] (AR v2)Track 8 accurately ripped (confidence 54) [77D242CF] (AR v2)Track 9 accurately ripped (confidence 55) [C772F876] (AR v2)Track 10 accurately ripped (confidence 54) [A6D2B5AA] (AR v2)Track 11 accurately ripped (confidence 53) [4D8D841E] (AR v2)Track 12 accurately ripped (confidence 52) [56B46907] (AR v2)Track 13 accurately ripped (confidence 51) [5E56828F] (AR v2)Track 14 accurately ripped (confidence 51) [2055CBB8] (AR v2)Track 15 accurately ripped (confidence 50) [A63FFD2A] (AR v2)Track 16 accurately ripped (confidence 49) [653B3AC1] (AR v2)Track 17 accurately ripped (confidence 46) [7D29CD81] (AR v2)
16 track(s) accurately ripped 1 track(s) could not be verified as accurate
Some tracks could not be verified as accurate
End of status report
---- CUETools DB Plugin V2.1.6
[CTDB TOCID: TgmwCCUTcg02h3Dn022Qm5Dcyhk-] foundSubmit result: insufficient qualityTrack | CTDB Status 1 | (51/67) Differs in 81 samples @01:54:02,01:55:42, or (1/67) differs in 81 samples @01:54:02,01:55:42 2 | (64/67) Accurately ripped 3 | (64/67) Accurately ripped 4 | (66/67) Accurately ripped 5 | (66/67) Accurately ripped 6 | (66/67) Accurately ripped 7 | (65/67) Accurately ripped 8 | (64/67) Accurately ripped 9 | (64/67) Accurately ripped 10 | (66/67) Accurately ripped 11 | (66/67) Accurately ripped 12 | (66/67) Accurately ripped 13 | (66/67) Accurately ripped 14 | (65/67) Accurately ripped 15 | (63/67) Accurately ripped 16 | (61/67) Accurately ripped 17 | (62/67) Accurately rippedIf you are sure that your rip contains errors, you can use CUETools to repair it.
==== Log checksum 0603D34EA15A70D2B2B76249B881A385CA9686D50848DEC730895DD87E91FC8A ====

Содержание индексной карты (.CUE)

REM GENRE PopREM DATE 1989REM DISCID EF117D11REM COMMENT "ExactAudioCopy v1.3"PERFORMER "Rod Stewart"TITLE "Storyteller (1989; 1989 Warner Bros. USA 9 25987-2) Disc 2"REM COMPOSER ""FILE "Rod Stewart - Storyteller (1989; 1989 Warner Bros. USA 9 25987-2) Disc 2.flac" WAVE  TRACK 01 AUDIO    TITLE "Maggie May"    PERFORMER "Rod Stewart"    REM COMPOSER ""    INDEX 00 00:00:00    INDEX 01 00:00:32  TRACK 02 AUDIO    TITLE "Mandolin Wind"    PERFORMER "Rod Stewart"    REM COMPOSER ""    INDEX 00 05:45:50    INDEX 01 05:46:32  TRACK 03 AUDIO    TITLE "(I Know) I'm Losing You"    PERFORMER "Rod Stewart"    REM COMPOSER ""    INDEX 00 11:17:07    INDEX 01 11:18:45  TRACK 04 AUDIO    TITLE "Reason To Believe"    PERFORMER "Rod Stewart"    REM COMPOSER ""    INDEX 00 16:39:32    INDEX 01 16:40:32  TRACK 05 AUDIO    TITLE "Every Picture Tells A Story"    PERFORMER "Rod Stewart"    REM COMPOSER ""    INDEX 00 20:45:47    INDEX 01 20:47:32  TRACK 06 AUDIO    TITLE "Stay With Me (With Faces)"    PERFORMER "Rod Stewart"    REM COMPOSER ""    INDEX 00 26:43:37    INDEX 01 26:44:32  TRACK 07 AUDIO    TITLE "True Blue"    PERFORMER "Rod Stewart"    REM COMPOSER ""    INDEX 00 31:22:07    INDEX 01 31:23:57  TRACK 08 AUDIO    TITLE "Angel"    PERFORMER "Rod Stewart"    REM COMPOSER ""    INDEX 00 34:56:67    INDEX 01 34:58:32  TRACK 09 AUDIO    TITLE "You Wear It Well"    PERFORMER "Rod Stewart"    REM COMPOSER ""    INDEX 00 39:03:10    INDEX 01 39:04:67  TRACK 10 AUDIO    TITLE "I'd Rather Go Blind"    PERFORMER "Rod Stewart"    REM COMPOSER ""    INDEX 00 44:07:00    INDEX 01 44:08:32  TRACK 11 AUDIO    TITLE "Twistin' The Night Away"    PERFORMER "Rod Stewart"    REM COMPOSER ""    INDEX 01 48:01:60  TRACK 12 AUDIO    TITLE "What's Made Milwaukee Famous"    PERFORMER "Rod Stewart"    REM COMPOSER ""    INDEX 00 51:16:10    INDEX 01 51:17:32  TRACK 13 AUDIO    TITLE "Oh! No Not My Baby"    PERFORMER "Rod Stewart"    REM COMPOSER ""    INDEX 00 54:09:02    INDEX 01 54:10:35  TRACK 14 AUDIO    TITLE "Pinball Wizard"    PERFORMER "Rod Stewart"    REM COMPOSER ""    INDEX 00 57:49:32    INDEX 01 57:49:37  TRACK 15 AUDIO    TITLE "Sweet Little Rock 'N' Roller"    PERFORMER "Rod Stewart"    REM COMPOSER ""    INDEX 00 61:30:00    INDEX 01 61:31:05  TRACK 16 AUDIO    TITLE "Let Me Be Your Car (With Elton John)"    PERFORMER "Rod Stewart"    REM COMPOSER ""    INDEX 00 65:15:45    INDEX 01 65:17:25  TRACK 17 AUDIO    TITLE "You Can Make Me Dance, Sing Or Anything (With Faces)"    PERFORMER "Rod Stewart"    REM COMPOSER ""    INDEX 00 70:13:12    INDEX 01 70:14:47

DR Log

foobar2000 1.3.13 / Замер динамического диапазона (DR) 1.1.1Дата отчёта:  2019-03-14 22:51:16
--------------------------------------------------------------------------------Анализ: Rod Stewart / Storyteller (1989; 1989 Warner Bros. USA 9 25987-2) Disc 2--------------------------------------------------------------------------------
DR Пики RMS Продолжительность трека--------------------------------------------------------------------------------DR11 -0.12 дБ -15.24 дБ 5:46 01-Maggie MayDR11 -1.00 дБ -16.17 дБ 5:32 02-Mandolin WindDR12 0.00 дБ -14.59 дБ 5:22 03-(I Know) I'm Losing YouDR12 0.00 дБ -15.82 дБ 4:07 04-Reason To BelieveDR12 -0.11 дБ -13.48 дБ 5:57 05-Every Picture Tells A StoryDR11 -1.09 дБ -13.82 дБ 4:39 06-Stay With Me (With Faces)DR11 -0.59 дБ -14.81 дБ 3:35 07-True BlueDR13 -0.22 дБ -16.69 дБ 4:06 08-AngelDR12 0.00 дБ -15.11 дБ 5:04 09-You Wear It WellDR13 -0.78 дБ -17.52 дБ 3:53 10-I'd Rather Go BlindDR12 0.00 дБ -14.25 дБ 3:16 11-Twistin' The Night AwayDR10 -1.59 дБ -14.50 дБ 2:53 12-What's Made Milwaukee FamousDR10 -0.17 дБ -12.89 дБ 3:39 13-Oh! No Not My BabyDR11 -1.11 дБ -15.33 дБ 3:42 14-Pinball WizardDR10 -0.01 дБ -12.89 дБ 3:46 15-Sweet Little Rock 'N' RollerDR10 -0.71 дБ -12.12 дБ 4:57 16-Let Me Be Your Car (With Elton John)DR12 -0.23 дБ -13.56 дБ 4:23 17-You Can Make Me Dance, Sing Or Anything (With Faces)--------------------------------------------------------------------------------
Количество треков: 17Реальные значения DR: DR11
Частота: 44100 ГцКаналов: 2Разрядность: 16Битрейт: 861 кбит/сКодек: FLAC================================================================================

CD3

01. Sailing
02. I Was Only Joking
03. You're In My Heart
04. Da Ya Think I'm Sexy
05. Passion
06. Oh God, I Wish I Was Home Tonight
07. Tonight I'm Yours
08. I Don't Want To Talk About It
09. Stone Cold Sober
10. To Love Somebody (With Booker T & The MG's)
11. Tonight's The Night
12. The First Cut Is The Deepest
13. The Killing Of Georgie (Part I & II)
14. Get Back
15. Hot Legs

Лог создания рипа

Exact Audio Copy V1.3 from 2. September 2016
EAC extraction logfile from 28. February 2019, 20:35
Rod Stewart / Storyteller (1989; 1989 Warner Bros. USA 9 25987-2) Disc 3
Used drive : PIONEER DVD-RW DVRTD11RS Adapter: 1 ID: 0
Read mode : SecureUtilize accurate stream : YesDefeat audio cache : NoMake use of C2 pointers : No
Read offset correction : 6Overread into Lead-In and Lead-Out : NoFill up missing offset samples with silence : YesDelete leading and trailing silent blocks : NoNull samples used in CRC calculations : YesUsed interface : Native Win32 interface for Win NT & 2000
Used output format : User Defined EncoderSelected bitrate : 768 kBit/sQuality : HighAdd ID3 tag : NoCommand line compressor : C:\Program Files (x86)\Exact Audio Copy\FLAC\FLAC.EXEAdditional command line options : -6 -V -T "ARTIST=%artist%" -T "TITLE=%title%" -T "ALBUM=%albumtitle%" -T "DATE=%year%" -T "TRACKNUMBER=%tracknr%" -T "GENRE=%genre%" -T "COMMENT=%comment%" -T "BAND=%albuminterpret%" -T "ALBUMARTIST=%albuminterpret%" -T "COMPOSER=%composer%" %haslyrics%--tag-from-file=LYRICS="%lyricsfile%"%haslyrics% -T "DISCNUMBER=%cdnumber%" -T "TOTALDISCS=%totalcds%" -T "TOTALTRACKS=%numtracks%" %hascover%--picture="%coverfile%"%hascover% %source% -o %dest%
TOC of the extracted CD
Track | Start | Length | Start sector | End sector --------------------------------------------------------- 1 | 0:00.32 | 4:39.43 | 32 | 20999 2 | 4:40.00 | 4:50.05 | 21000 | 42754 3 | 9:30.05 | 4:13.17 | 42755 | 61746 4 | 13:43.22 | 4:31.10 | 61747 | 82081 5 | 18:14.32 | 3:56.18 | 82082 | 99799 6 | 22:10.50 | 4:27.30 | 99800 | 119854 7 | 26:38.05 | 6:27.62 | 119855 | 148941 8 | 33:05.67 | 4:27.15 | 148942 | 168981 9 | 37:33.07 | 5:15.55 | 168982 | 192661 10 | 42:48.62 | 6:08.05 | 192662 | 220266 11 | 48:56.67 | 4:30.40 | 220267 | 240556 12 | 53:27.32 | 5:30.00 | 240557 | 265306 13 | 58:57.32 | 5:32.03 | 265307 | 290209 14 | 64:29.35 | 5:02.72 | 290210 | 312931 15 | 69:32.32 | 4:11.00 | 312932 | 331756
Range status and errors
Selected range
Filename C:\Users\DeRis\Desktop\kpnemo.eu\CD3\Rod Stewart - Storyteller (1989; 1989 Warner Bros. USA 9 25987-2) Disc 3.wav
Peak level 100.0 % Extraction speed 3.8 X Range quality 100.0 % Test CRC F0B4E0AF Copy CRC F0B4E0AF Copy OK
No errors occurred
AccurateRip summary
Track 1 not present in databaseTrack 2 not present in databaseTrack 3 not present in databaseTrack 4 not present in databaseTrack 5 not present in databaseTrack 6 not present in databaseTrack 7 not present in databaseTrack 8 not present in databaseTrack 9 not present in databaseTrack 10 not present in databaseTrack 11 not present in databaseTrack 12 not present in databaseTrack 13 not present in databaseTrack 14 not present in databaseTrack 15 not present in database
None of the tracks are present in the AccurateRip database
End of status report
---- CUETools DB Plugin V2.1.6
[CTDB TOCID: BzbD3Nqcc46MmATZI65WAHq0yc4-] foundSubmit result: BzbD3Nqcc46MmATZI65WAHq0yc4- has been submittedTrack | CTDB Status 1 | (132/150) Differs in 198 samples @03:54:46,03:55:48-03:55:49,03:55:59-03:55:60 2 | (146/150) Accurately ripped 3 | (147/150) Accurately ripped 4 | (149/150) Accurately ripped 5 | (148/150) Accurately ripped 6 | (147/150) Accurately ripped 7 | (147/150) Accurately ripped 8 | (147/150) Accurately ripped 9 | (145/150) Accurately ripped 10 | (143/150) Accurately ripped 11 | (145/150) Accurately ripped 12 | (142/150) Accurately ripped 13 | (145/150) Accurately ripped 14 | (145/150) Accurately ripped 15 | (145/150) Accurately rippedIf you are sure that your rip contains errors, you can use CUETools to repair it.
==== Log checksum 173454E017097F66C3013036D734BF1078F662DE4F497193D3C008C4479F8EF9 ====

Содержание индексной карты (.CUE)

REM GENRE PopREM DATE 1989REM DISCID DB11470FREM COMMENT "ExactAudioCopy v1.3"PERFORMER "Rod Stewart"TITLE "Storyteller (1989; 1989 Warner Bros. USA 9 25987-2) Disc 3"REM COMPOSER ""FILE "Rod Stewart - Storyteller (1989; 1989 Warner Bros. USA 9 25987-2) Disc 3.flac" WAVE  TRACK 01 AUDIO    TITLE "Sailing"    PERFORMER "Rod Stewart"    REM COMPOSER ""    INDEX 00 00:00:00    INDEX 01 00:00:32  TRACK 02 AUDIO    TITLE "I Don't Want To Talk About It"    PERFORMER "Rod Stewart"    REM COMPOSER ""    INDEX 00 04:38:57    INDEX 01 04:40:00  TRACK 03 AUDIO    TITLE "Stone Cold Sober"    PERFORMER "Rod Stewart"    REM COMPOSER ""    INDEX 00 09:28:67    INDEX 01 09:30:05  TRACK 04 AUDIO    TITLE "To Love Somebody (With Booker T & The MG's)"    PERFORMER "Rod Stewart"    REM COMPOSER ""    INDEX 00 13:42:25    INDEX 01 13:43:22  TRACK 05 AUDIO    TITLE "Tonight's The Night"    PERFORMER "Rod Stewart"    REM COMPOSER ""    INDEX 00 18:13:15    INDEX 01 18:14:32  TRACK 06 AUDIO    TITLE "The First Cut Is The Deepest"    PERFORMER "Rod Stewart"    REM COMPOSER ""    INDEX 00 22:09:05    INDEX 01 22:10:50  TRACK 07 AUDIO    TITLE "The Killing Of Georgie (Part I & II)"    PERFORMER "Rod Stewart"    REM COMPOSER ""    INDEX 00 26:37:50    INDEX 01 26:38:05  TRACK 08 AUDIO    TITLE "Get Back"    PERFORMER "Rod Stewart"    REM COMPOSER ""    INDEX 00 33:04:62    INDEX 01 33:05:67  TRACK 09 AUDIO    TITLE "Hot Legs"    PERFORMER "Rod Stewart"    REM COMPOSER ""    INDEX 00 37:31:70    INDEX 01 37:33:07  TRACK 10 AUDIO    TITLE "I Was Only Joking"    PERFORMER "Rod Stewart"    REM COMPOSER ""    INDEX 00 42:47:67    INDEX 01 42:48:62  TRACK 11 AUDIO    TITLE "You're In My Heart"    PERFORMER "Rod Stewart"    REM COMPOSER ""    INDEX 00 48:55:72    INDEX 01 48:56:67  TRACK 12 AUDIO    TITLE "Da Ya Think I'm Sexy"    PERFORMER "Rod Stewart"    REM COMPOSER ""    INDEX 00 53:25:42    INDEX 01 53:27:32  TRACK 13 AUDIO    TITLE "Passion"    PERFORMER "Rod Stewart"    REM COMPOSER ""    INDEX 00 58:56:15    INDEX 01 58:57:32  TRACK 14 AUDIO    TITLE "Oh God, I Wish I Was Home Tonight"    PERFORMER "Rod Stewart"    REM COMPOSER ""    INDEX 00 64:28:30    INDEX 01 64:29:35  TRACK 15 AUDIO    TITLE "Tonight I'm Yours"    PERFORMER "Rod Stewart"    REM COMPOSER ""    INDEX 00 69:31:02    INDEX 01 69:32:32

DR Log

foobar2000 1.3.13 / Замер динамического диапазона (DR) 1.1.1Дата отчёта:  2019-03-14 22:52:20
--------------------------------------------------------------------------------Анализ: Rod Stewart / Storyteller (1989; 1989 Warner Bros. USA 9 25987-2) Disc 3--------------------------------------------------------------------------------
DR Пики RMS Продолжительность трека--------------------------------------------------------------------------------DR12 -0.07 дБ -15.66 дБ 4:40 01-SailingDR13 -1.37 дБ -17.44 дБ 4:50 02-I Don't Want To Talk About ItDR13 -0.08 дБ -14.46 дБ 4:13 03-Stone Cold SoberDR12 -0.84 дБ -17.04 дБ 4:31 04-To Love Somebody (With Booker T & The MG's)DR12 -1.81 дБ -17.46 дБ 3:56 05-Tonight's The NightDR12 -1.16 дБ -16.50 дБ 4:27 06-The First Cut Is The DeepestDR12 -0.95 дБ -16.16 дБ 6:28 07-The Killing Of Georgie (Part I & II)DR11 0.00 дБ -14.72 дБ 4:27 08-Get BackDR13 -0.91 дБ -15.61 дБ 5:16 09-Hot LegsDR13 0.00 дБ -16.64 дБ 6:08 10-I Was Only JokingDR13 0.00 дБ -16.42 дБ 4:31 11-You're In My HeartDR13 0.00 дБ -14.89 дБ 5:30 12-Da Ya Think I'm SexyDR12 -0.63 дБ -15.72 дБ 5:32 13-PassionDR11 -0.67 дБ -13.70 дБ 5:03 14-Oh God, I Wish I Was Home TonightDR14 -0.82 дБ -15.97 дБ 4:11 15-Tonight I'm Yours--------------------------------------------------------------------------------
Количество треков: 15Реальные значения DR: DR12
Частота: 44100 ГцКаналов: 2Разрядность: 16Битрейт: 851 кбит/сКодек: FLAC================================================================================

CD4

01. Young Turks
02. Baby Jane
03. What Am I Gonna Do (I'm So In Love With You)
04. People Get Ready
05. Some Guys Have All The Luck
06. Infatuation
07. Love Touch
08. Every Beat Of My Heart
09. Lost In You
10. My Heart Can't Tell You No
11. Dynamite
12. Crazy About Her
13. Forever Young
14. I Don't Want To Talk About It
15. This Old Heart Of Mine
16. Downtown Train

Лог создания рипа

Exact Audio Copy V1.3 from 2. September 2016
EAC extraction logfile from 1. March 2019, 17:05
Rod Stewart / Storyteller
Used drive : PIONEER DVD-RW DVRTD11RS Adapter: 1 ID: 0
Read mode : SecureUtilize accurate stream : YesDefeat audio cache : NoMake use of C2 pointers : No
Read offset correction : 6Overread into Lead-In and Lead-Out : NoFill up missing offset samples with silence : YesDelete leading and trailing silent blocks : NoNull samples used in CRC calculations : YesUsed interface : Native Win32 interface for Win NT & 2000
Used output format : User Defined EncoderSelected bitrate : 768 kBit/sQuality : HighAdd ID3 tag : NoCommand line compressor : C:\Program Files (x86)\Exact Audio Copy\FLAC\FLAC.EXEAdditional command line options : -6 -V -T "ARTIST=%artist%" -T "TITLE=%title%" -T "ALBUM=%albumtitle%" -T "DATE=%year%" -T "TRACKNUMBER=%tracknr%" -T "GENRE=%genre%" -T "COMMENT=%comment%" -T "BAND=%albuminterpret%" -T "ALBUMARTIST=%albuminterpret%" -T "COMPOSER=%composer%" %haslyrics%--tag-from-file=LYRICS="%lyricsfile%"%haslyrics% -T "DISCNUMBER=%cdnumber%" -T "TOTALDISCS=%totalcds%" -T "TOTALTRACKS=%numtracks%" %hascover%--picture="%coverfile%"%hascover% %source% -o %dest%
TOC of the extracted CD
Track | Start | Length | Start sector | End sector --------------------------------------------------------- 1 | 0:00.32 | 5:02.70 | 32 | 22751 2 | 5:03.27 | 4:45.00 | 22752 | 44126 3 | 9:48.27 | 4:19.53 | 44127 | 63604 4 | 14:08.05 | 4:53.40 | 63605 | 85619 5 | 19:01.45 | 4:33.10 | 85620 | 106104 6 | 23:34.55 | 5:13.15 | 106105 | 129594 7 | 28:47.70 | 4:03.32 | 129595 | 147851 8 | 32:51.27 | 5:19.45 | 147852 | 171821 9 | 38:10.72 | 4:58.28 | 171822 | 194199 10 | 43:09.25 | 5:13.62 | 194200 | 217736 11 | 48:23.12 | 4:17.08 | 217737 | 237019 12 | 52:40.20 | 4:55.07 | 237020 | 259151 13 | 57:35.27 | 4:04.60 | 259152 | 277511 14 | 61:40.12 | 4:53.53 | 277512 | 299539 15 | 66:33.65 | 4:11.72 | 299540 | 318436 16 | 70:45.62 | 4:39.53 | 318437 | 339414
Range status and errors
Selected range
Filename C:\Users\DeRis\Desktop\kpnemo.eu\CD4\Rod Stewart - Storyteller.wav
Peak level 100.0 % Extraction speed 3.8 X Range quality 100.0 % Test CRC 0F0160C2 Copy CRC 0F0160C2 Copy OK
No errors occurred
AccurateRip summary
Track 1 accurately ripped (confidence 56) [C164332D] (AR v2)Track 2 accurately ripped (confidence 57) [7507876E] (AR v2)Track 3 accurately ripped (confidence 58) [3F060AFA] (AR v2)Track 4 accurately ripped (confidence 58) [389BD00F] (AR v2)Track 5 accurately ripped (confidence 55) [5CC20B32] (AR v2)Track 6 accurately ripped (confidence 56) [8C46ABE7] (AR v2)Track 7 accurately ripped (confidence 58) [5AB8986E] (AR v2)Track 8 accurately ripped (confidence 57) [7FA8D984] (AR v2)Track 9 accurately ripped (confidence 56) [8B75C6DA] (AR v2)Track 10 accurately ripped (confidence 55) [B41F6CAC] (AR v2)Track 11 accurately ripped (confidence 56) [3AA89242] (AR v2)Track 12 accurately ripped (confidence 54) [24871EEC] (AR v2)Track 13 accurately ripped (confidence 54) [ADF8ABBD] (AR v2)Track 14 accurately ripped (confidence 54) [CC82D84D] (AR v2)Track 15 accurately ripped (confidence 52) [89B0D27A] (AR v2)Track 16 accurately ripped (confidence 52) [AAFE9DAC] (AR v2)
All tracks accurately ripped
End of status report
---- CUETools DB Plugin V2.1.6
[CTDB TOCID: pz.C8kIfoH2AgAx2ZPZowEjicmY-] foundSubmit result: pz.C8kIfoH2AgAx2ZPZowEjicmY- has been confirmedTrack | CTDB Status 1 | (158/163) Accurately ripped 2 | (159/163) Accurately ripped 3 | (162/163) Accurately ripped 4 | (158/163) Accurately ripped 5 | (157/163) Accurately ripped 6 | (161/163) Accurately ripped 7 | (161/163) Accurately ripped 8 | (157/163) Accurately ripped 9 | (158/163) Accurately ripped 10 | (157/163) Accurately ripped 11 | (160/163) Accurately ripped 12 | (160/163) Accurately ripped 13 | (158/163) Accurately ripped 14 | (154/163) Accurately ripped 15 | (155/163) Accurately ripped 16 | (151/163) Accurately ripped
==== Log checksum 928084D8515C8AF5F114C701CB0BDEB17279858C10325351D984954502E3F6F5 ====

Содержание индексной карты (.CUE)

REM GENRE RockREM DATE 1989REM DISCID E711AD10REM COMMENT "ExactAudioCopy v1.3"PERFORMER "Rod Stewart"TITLE "Storyteller"REM COMPOSER ""FILE "Rod Stewart - Storyteller.flac" WAVE  TRACK 01 AUDIO    TITLE "Young Turks"    PERFORMER "Rod Stewart"    REM COMPOSER ""    INDEX 00 00:00:00    INDEX 01 00:00:32  TRACK 02 AUDIO    TITLE "Baby Jane"    PERFORMER "Rod Stewart"    REM COMPOSER ""    INDEX 00 05:02:17    INDEX 01 05:03:27  TRACK 03 AUDIO    TITLE "What Am I Gonna Do (I'm So In Love With You)"    PERFORMER "Rod Stewart"    REM COMPOSER ""    INDEX 00 09:46:67    INDEX 01 09:48:27  TRACK 04 AUDIO    TITLE "People Get Ready (With Jeff Beck)"    PERFORMER "Rod Stewart"    REM COMPOSER ""    INDEX 00 14:06:27    INDEX 01 14:08:05  TRACK 05 AUDIO    TITLE "Some Guys Have All The Luck"    PERFORMER "Rod Stewart"    REM COMPOSER ""    INDEX 00 19:00:15    INDEX 01 19:01:45  TRACK 06 AUDIO    TITLE "Infatuation"    PERFORMER "Rod Stewart"    REM COMPOSER ""    INDEX 00 23:33:55    INDEX 01 23:34:55  TRACK 07 AUDIO    TITLE "Love Touch"    PERFORMER "Rod Stewart"    REM COMPOSER ""    INDEX 00 28:47:35    INDEX 01 28:47:70  TRACK 08 AUDIO    TITLE "Every Beat Of My Heart"    PERFORMER "Rod Stewart"    REM COMPOSER ""    INDEX 00 32:50:50    INDEX 01 32:51:27  TRACK 09 AUDIO    TITLE "Lost In You"    PERFORMER "Rod Stewart"    REM COMPOSER ""    INDEX 00 38:10:22    INDEX 01 38:10:72  TRACK 10 AUDIO    TITLE "My Heart Can't Tell You No"    PERFORMER "Rod Stewart"    REM COMPOSER ""    INDEX 00 43:08:07    INDEX 01 43:09:25  TRACK 11 AUDIO    TITLE "Dynamite"    PERFORMER "Rod Stewart"    REM COMPOSER ""    INDEX 00 48:21:40    INDEX 01 48:23:12  TRACK 12 AUDIO    TITLE "Crazy About Her"    PERFORMER "Rod Stewart"    REM COMPOSER ""    INDEX 00 52:38:30    INDEX 01 52:40:20  TRACK 13 AUDIO    TITLE "Forever Young"    PERFORMER "Rod Stewart"    REM COMPOSER ""    INDEX 00 57:33:62    INDEX 01 57:35:27  TRACK 14 AUDIO    TITLE "I Don't Want To Talk About It (1989 Version)"    PERFORMER "Rod Stewart"    REM COMPOSER ""    INDEX 00 61:39:02    INDEX 01 61:40:12  TRACK 15 AUDIO    TITLE "This Old Heart Of Mine (Wth Ronald Isley)"    PERFORMER "Rod Stewart"    REM COMPOSER ""    INDEX 00 66:32:15    INDEX 01 66:33:65  TRACK 16 AUDIO    TITLE "Downtown Train"    PERFORMER "Rod Stewart"    REM COMPOSER ""    INDEX 00 70:45:10    INDEX 01 70:45:62

DR Log

foobar2000 1.3.13 / Замер динамического диапазона (DR) 1.1.1Дата отчёта:  2019-03-14 22:53:25
--------------------------------------------------------------------------------Анализ: Rod Stewart / Storyteller--------------------------------------------------------------------------------
DR Пики RMS Продолжительность трека--------------------------------------------------------------------------------DR13 -0.79 дБ -15.13 дБ 5:03 01-Young TurksDR9 -1.56 дБ -13.54 дБ 4:45 02-Baby JaneDR9 -1.25 дБ -13.47 дБ 4:20 03-What Am I Gonna Do (I'm So In Love With You)DR13 0.00 дБ -15.10 дБ 4:54 04-People Get Ready (With Jeff Beck)DR14 0.00 дБ -15.34 дБ 4:33 05-Some Guys Have All The LuckDR14 -0.27 дБ -16.12 дБ 5:13 06-InfatuationDR11 -3.61 дБ -16.11 дБ 4:03 07-Love TouchDR10 -2.05 дБ -14.39 дБ 5:20 08-Every Beat Of My HeartDR14 -0.30 дБ -15.84 дБ 4:58 09-Lost In YouDR12 -0.81 дБ -15.34 дБ 5:14 10-My Heart Can't Tell You NoDR11 -0.44 дБ -13.74 дБ 4:17 11-DynamiteDR14 -0.10 дБ -16.47 дБ 4:55 12-Crazy About HerDR12 -1.88 дБ -16.05 дБ 4:05 13-Forever YoungDR12 -1.21 дБ -15.98 дБ 4:54 14-I Don't Want To Talk About It (1989 Version)DR11 -1.53 дБ -14.13 дБ 4:12 15-This Old Heart Of Mine (Wth Ronald Isley)DR12 0.00 дБ -15.42 дБ 4:40 16-Downtown Train--------------------------------------------------------------------------------
Количество треков: 16Реальные значения DR: DR12
Частота: 44100 ГцКаналов: 2Разрядность: 16Битрейт: 894 кбит/сКодек: FLAC================================================================================
-Раздаю до первых 5-ти скачавших, на раздачи не возвращаюсь...-

If you like the topic, please click share to help develop our site.

To download the file disable ad blocking, and reload the page.

disable adblock How to disable ad blocking?

Download by magnet link 1.93 GB Download Torrent

Login using:

Similar topics



   
Current time is: 16-Jun 00:10 :: All times are UTC + 3