Neil Young – Archives Collection
Жанр: Classic Rock
Страна-производитель диска: См. каждый диск
Год издания диска: 2007-2018
Издатель (лейбл): См. каждый диск
Номер по каталогу: См. каждый диск
Страна: USA, Canada
Аудио кодек: FLAC (*.flac)
Тип рипа: image+.cue
Битрейт аудио: lossless
Общая продолжительность: 9h11m22s
Источник (релизер): snakesharmer
Наличие сканов в содержимом раздачи: Полностью 600 dpi

Дополнительная информация

wiki

Archives. Box sets

Archives. Volume 1: 1963–1972 - http://********.org/forum/viewtopic.php?t=2022725

Perfomance Series

Volume 00: Sugar Mountain - Live at Canterbury House 1968 – в этой раздаче
Volume 01: Live at the Riverboat 1969 – в составе Archives. Volume 1: 1963–1972 - http://********.org/forum/viewtopic.php?t=2022725
Volume 02: Live at the Fillmore East 1970 - http://********.org/forum/viewtopic.php?t=4291014
Volume 02.5: Live at the Cellar Door – в этой раздаче
Volume 03: Live at Massey Hall 1971 – в этой раздаче
Volume 05: Roxy: Tonight's the Night Live 1973 – в этой раздаче
Volume 07: Songs for Judy – в этой раздаче
Volume 09: A Treasure - http://********.org/forum/viewtopic.php?t=4291014
Volume 11: Bluenote Café – в этой раздаче
Volume 12: Dreamin' Man Live '92 – в этой раздаче

Special Release Series

Volume 05: Hitchhiker – в этой раздаче
Volume 10: Original Soundtrack from "Paradox" movie - http://********.org/forum/viewtopic.php?t=5658136

1968 (2008). Sugar Mountain - Live at Canterbury House

- Страна-производитель диска: USA
Издатель (лейбл): Reprise Records
Номер по каталогу: 516758-2
Продолжительность: 70.12:64
Matrix: Z71292 M1S1 1 512563-2 TEXT 02 ifpi L909 [IFPI 2U8E]-01. [Emcee Intro.] - Neil Young [0:00:45.06]
02. On The Way Home - Neil Young [0:02:51.45]
03. Songwriting Rap - Neil Young [0:03:12.65]
04. Mr. Soul - Neil Young [0:03:13.44]
05. Recording Rap - Neil Young [0:00:30.28]
06. Expecting To Fly - Neil Young [0:02:38.44]
07. The Last Trip To Tulsa - Neil Young [0:08:35.68]
08. Bookstore Rap - Neil Young [0:04:26.66]
09. The Loner - Neil Young [0:04:41.00]
10. "I Used To . . ." Rap - Neil Young [0:00:37.72]
11. Birds - Neil Young [0:02:16.41]
12. Winterlong (Excerpt) & Out Of My Mind - Intro. - Neil Young [0:01:38.17]
13. Out Of My Mind - Neil Young [0:02:07.31]
14. If I Could Have Her Tonight - Neil Young [0:02:34.25]
15. Classical Gas Rap - Neil Young [0:00:40.41]
16. Sugar Mountain - Intro. - Neil Young [0:00:29.09]
17. Sugar Mountain - Neil Young [0:05:46.73]
18. I've Been Waiting For You - Neil Young [0:02:04.08]
19. Songs Rap - Neil Young [0:00:37.39]
20. Nowadays Clancy Can't Even Sing - Neil Young [0:04:43.25]
21. Tuning Rap & The Old Laughing Lady - Intro. - Neil Young [0:03:06.37]
22. The Old Laughing Lady - Neil Young [0:07:25.51]
23. Broken Arrow - Neil Young [0:05:08.54]-

CD, Back, Matrix

EAC

Exact Audio Copy V1.3 from 2. September 2016
EAC extraction logfile from 15. March 2019, 21:10
Neil Young / Sugar Mountain - Live At Canterbury House 1968
Used drive : PLEXTOR DVDR PX-L890SA Adapter: 1 ID: 1
Read mode : SecureUtilize accurate stream : YesDefeat audio cache : YesMake use of C2 pointers : No
Read offset correction : 6Overread into Lead-In and Lead-Out : NoFill up missing offset samples with silence : YesDelete leading and trailing silent blocks : NoNull samples used in CRC calculations : YesUsed interface : Native Win32 interface for Win NT & 2000
Used output format : User Defined EncoderSelected bitrate : 1024 kBit/sQuality : HighAdd ID3 tag : NoCommand line compressor : C:\Program Files (x86)\Exact Audio Copy\Flac\flac.exeAdditional command line options : -V -8 -T "Date=%year%" -T "Genre=%genre%" %source%
TOC of the extracted CD
Track | Start | Length | Start sector | End sector --------------------------------------------------------- 1 | 0:00.00 | 0:45.06 | 0 | 3380 2 | 0:45.06 | 2:51.45 | 3381 | 16250 3 | 3:36.51 | 3:12.65 | 16251 | 30715 4 | 6:49.41 | 3:13.44 | 30716 | 45234 5 | 10:03.10 | 0:30.28 | 45235 | 47512 6 | 10:33.38 | 2:38.44 | 47513 | 59406 7 | 13:12.07 | 8:35.68 | 59407 | 98099 8 | 21:48.00 | 4:26.66 | 98100 | 118115 9 | 26:14.66 | 4:41.00 | 118116 | 139190 10 | 30:55.66 | 0:37.72 | 139191 | 142037 11 | 31:33.63 | 2:16.41 | 142038 | 152278 12 | 33:50.29 | 1:38.17 | 152279 | 159645 13 | 35:28.46 | 2:07.31 | 159646 | 169201 14 | 37:36.02 | 2:34.25 | 169202 | 180776 15 | 40:10.27 | 0:40.41 | 180777 | 183817 16 | 40:50.68 | 0:29.09 | 183818 | 186001 17 | 41:20.02 | 5:46.73 | 186002 | 212024 18 | 47:07.00 | 2:04.08 | 212025 | 221332 19 | 49:11.08 | 0:37.39 | 221333 | 224146 20 | 49:48.47 | 4:43.25 | 224147 | 245396 21 | 54:31.72 | 3:06.37 | 245397 | 259383 22 | 57:38.34 | 7:25.51 | 259384 | 292809 23 | 65:04.10 | 5:08.54 | 292810 | 315963
Range status and errors
Selected range
Filename H:\AUDIO\MUSIC\2008. Neil Young - Sugar Mountain (Reprise 516758-2, USA)\Neil Young - Sugar Mountain - Live At Canterbury House 1968.wav
Peak level 98.2 % Extraction speed 3.6 X Range quality 100.0 % Test CRC 3A2A3B97 Copy CRC 3A2A3B97 Copy OK
No errors occurred
AccurateRip summary
Track 1 accurately ripped (confidence 138) [3C1E1838] (AR v2)Track 2 accurately ripped (confidence 138) [6DAE6A3C] (AR v2)Track 3 accurately ripped (confidence 135) [9474A868] (AR v2)Track 4 accurately ripped (confidence 137) [6FA13BE4] (AR v2)Track 5 accurately ripped (confidence 137) [E89E93EB] (AR v2)Track 6 accurately ripped (confidence 139) [CC9E8C13] (AR v2)Track 7 accurately ripped (confidence 136) [5C5EDC8D] (AR v2)Track 8 accurately ripped (confidence 137) [26A05971] (AR v2)Track 9 accurately ripped (confidence 138) [4829A3FD] (AR v2)Track 10 accurately ripped (confidence 138) [48C87A6C] (AR v2)Track 11 accurately ripped (confidence 139) [A91D9D89] (AR v2)Track 12 accurately ripped (confidence 139) [76CA5635] (AR v2)Track 13 accurately ripped (confidence 137) [10AA0DCB] (AR v2)Track 14 accurately ripped (confidence 138) [FF0D3370] (AR v2)Track 15 accurately ripped (confidence 138) [28A975CA] (AR v2)Track 16 accurately ripped (confidence 138) [7B4878DB] (AR v2)Track 17 accurately ripped (confidence 139) [484460A4] (AR v2)Track 18 accurately ripped (confidence 136) [739561F7] (AR v2)Track 19 accurately ripped (confidence 136) [B0E66E88] (AR v2)Track 20 accurately ripped (confidence 137) [44577A25] (AR v2)Track 21 accurately ripped (confidence 136) [B82BDB59] (AR v2)Track 22 accurately ripped (confidence 135) [32242937] (AR v2)Track 23 accurately ripped (confidence 129) [101C0DAD] (AR v2)
All tracks accurately ripped
End of status report
==== Log checksum ADC0AF4F7E7F39465C75E4ACCBF15336BF8833743EC6E543AE1CA1C6F9626579 ====

1970 (2013). Live At The Cellar Door

- Страна-производитель диска: USA
Издатель (лейбл): Reprise Records
Номер по каталогу: 535854-2
Продолжительность: 45.06:40
Matrix: Z124392 1 535854-2 TEXT 02 M1S1 ifpi L909 [IFPI 2U3V]-01. Tell Me Why - Neil Young [0:02:52.15]
02. Only Love Can Break Your Heart - Neil Young [0:03:13.66]
03. After The Gold Rush - Neil Young [0:03:48.35]
04. Expecting To Fly - Neil Young [0:03:21.59]
05. Bad Fog Of Loneliness - Neil Young [0:02:00.62]
06. Old Man - Neil Young [0:03:41.03]
07. Birds - Neil Young [0:02:19.17]
08. Don't Let It Bring You Down - Neil Young [0:02:38.40]
09. See The Sky About To Rain - Neil Young [0:03:21.32]
10. Cinnamon Girl - Neil Young [0:03:29.32]
11. I Am A Child - Neil Young [0:02:43.39]
12. Down By The River - Neil Young [0:04:24.65]
13. Flying On The Ground Is Wrong - Neil Young [0:07:11.25]-

CD, Back, Matrix

EAC

Exact Audio Copy V1.3 from 2. September 2016
EAC extraction logfile from 15. March 2019, 21:47
Neil Young / Live At The Cellar Door
Used drive : PLEXTOR DVDR PX-L890SA Adapter: 1 ID: 1
Read mode : SecureUtilize accurate stream : YesDefeat audio cache : YesMake use of C2 pointers : No
Read offset correction : 6Overread into Lead-In and Lead-Out : NoFill up missing offset samples with silence : YesDelete leading and trailing silent blocks : NoNull samples used in CRC calculations : YesUsed interface : Native Win32 interface for Win NT & 2000
Used output format : User Defined EncoderSelected bitrate : 1024 kBit/sQuality : HighAdd ID3 tag : NoCommand line compressor : C:\Program Files (x86)\Exact Audio Copy\Flac\flac.exeAdditional command line options : -V -8 -T "Date=%year%" -T "Genre=%genre%" %source%
TOC of the extracted CD
Track | Start | Length | Start sector | End sector --------------------------------------------------------- 1 | 0:00.00 | 2:52.15 | 0 | 12914 2 | 2:52.15 | 3:13.66 | 12915 | 27455 3 | 6:06.06 | 3:48.35 | 27456 | 44590 4 | 9:54.41 | 3:21.59 | 44591 | 59724 5 | 13:16.25 | 2:00.62 | 59725 | 68786 6 | 15:17.12 | 3:41.03 | 68787 | 85364 7 | 18:58.15 | 2:19.17 | 85365 | 95806 8 | 21:17.32 | 2:38.40 | 95807 | 107696 9 | 23:55.72 | 3:21.32 | 107697 | 122803 10 | 27:17.29 | 3:29.32 | 122804 | 138510 11 | 30:46.61 | 2:43.39 | 138511 | 150774 12 | 33:30.25 | 4:24.65 | 150775 | 170639 13 | 37:55.15 | 7:11.25 | 170640 | 202989
Range status and errors
Selected range
Filename H:\AUDIO\MUSIC\2013. Neil Young - Live At The Cellar Door (Reprise 535854-2, USA)\Neil Young - Live At The Cellar Door.wav
Peak level 97.6 % Extraction speed 5.8 X Range quality 100.0 % Test CRC DEB7A196 Copy CRC DEB7A196 Copy OK
No errors occurred
AccurateRip summary
Track 1 accurately ripped (confidence 68) [6C8127C3] (AR v2)Track 2 accurately ripped (confidence 68) [10705B37] (AR v2)Track 3 accurately ripped (confidence 68) [D4991A95] (AR v2)Track 4 accurately ripped (confidence 68) [F148EF68] (AR v2)Track 5 accurately ripped (confidence 68) [2BD96192] (AR v2)Track 6 accurately ripped (confidence 68) [9B911626] (AR v2)Track 7 accurately ripped (confidence 68) [7D171752] (AR v2)Track 8 accurately ripped (confidence 68) [DDC51AED] (AR v2)Track 9 accurately ripped (confidence 68) [2F404590] (AR v2)Track 10 accurately ripped (confidence 68) [67E3ACFE] (AR v2)Track 11 accurately ripped (confidence 68) [96139898] (AR v2)Track 12 accurately ripped (confidence 68) [FDCCC9FD] (AR v2)Track 13 accurately ripped (confidence 69) [465C0093] (AR v2)
All tracks accurately ripped
End of status report
==== Log checksum C15CB97E87B4DCA8B400474A1D7FA22BFFE209151118A882052E8A6B46F1FE13 ====

1971 (2007). Live At Massey Hall

- Страна-производитель диска: USA
Издатель (лейбл): Reprise Records
Номер по каталогу: 43328-2
Продолжительность: 67.37:91
Matrix: (621148) 1 100711-2 TEXT 02 0001 IFPI L247 [IFPI KK01]-01. On The Way Home - Neil Young [0:03:42.59]
02. Tell Me Why - Neil Young [0:02:29.04]
03. Old Man - Neil Young [0:04:57.04]
04. Journey Through The Past - Neil Young [0:04:15.53]
05. Helpless - Neil Young [0:04:16.00]
06. Love In Mind - Neil Young [0:02:47.45]
07. A Man Needs A Maid/Heart Of Gold Suite - Neil Young [0:06:39.00]
08. Cowgirl In The Sand - Neil Young [0:03:45.67]
09. Don't Let It Bring You Down - Neil Young [0:02:46.22]
10. There's A World - Neil Young [0:03:33.64]
11. Bad Fog Of Loneliness - Neil Young [0:03:27.15]
12. The Needle And The Damage Done - Neil Young [0:03:55.09]
13. Ohio - Neil Young [0:03:40.02]
14. See The Sky About To Rain - Neil Young [0:04:05.21]
15. Down By The River - Neil Young [0:04:08.64]
16. Dance Dance Dance - Neil Young [0:05:48.68]
17. I Am A Child - Neil Young [0:03:19.44]-

CD, Back, Matrix

EAC

Exact Audio Copy V1.3 from 2. September 2016
EAC extraction logfile from 10. February 2019, 12:26
Neil Young / Live At Massey Hall 1971
Used drive : Optiarc DVD RW AD-7263S Adapter: 1 ID: 0
Read mode : SecureUtilize accurate stream : YesDefeat audio cache : YesMake use of C2 pointers : No
Read offset correction : 48Overread into Lead-In and Lead-Out : NoFill up missing offset samples with silence : YesDelete leading and trailing silent blocks : NoNull samples used in CRC calculations : YesUsed interface : Native Win32 interface for Win NT & 2000
Used output format : User Defined EncoderSelected bitrate : 1024 kBit/sQuality : HighAdd ID3 tag : NoCommand line compressor : C:\Program Files (x86)\Exact Audio Copy\Flac\flac.exeAdditional command line options : -V -8 -T "Date=%year%" -T "Genre=%genre%" %source%
TOC of the extracted CD
Track | Start | Length | Start sector | End sector --------------------------------------------------------- 1 | 0:00.00 | 3:42.59 | 0 | 16708 2 | 3:42.59 | 2:29.04 | 16709 | 27887 3 | 6:11.63 | 4:57.04 | 27888 | 50166 4 | 11:08.67 | 4:15.53 | 50167 | 69344 5 | 15:24.45 | 4:16.00 | 69345 | 88544 6 | 19:40.45 | 2:47.45 | 88545 | 101114 7 | 22:28.15 | 6:39.00 | 101115 | 131039 8 | 29:07.15 | 3:45.67 | 131040 | 147981 9 | 32:53.07 | 2:46.22 | 147982 | 160453 10 | 35:39.29 | 3:33.64 | 160454 | 176492 11 | 39:13.18 | 3:27.15 | 176493 | 192032 12 | 42:40.33 | 3:55.09 | 192033 | 209666 13 | 46:35.42 | 3:40.02 | 209667 | 226168 14 | 50:15.44 | 4:05.21 | 226169 | 244564 15 | 54:20.65 | 4:08.64 | 244565 | 263228 16 | 58:29.54 | 5:48.68 | 263229 | 289396 17 | 64:18.47 | 3:19.44 | 289397 | 304365
Range status and errors
Selected range
Filename H:\AUDIO\MUSIC\2007. Neil Young - Live At Massey Hall 1971 (Reprise 43328-2, USA, HDCD)\Neil Young - Live At Massey Hall 1971.wav
Peak level 97.6 % Extraction speed 4.1 X Range quality 100.0 % Test CRC 32009792 Copy CRC 32009792 Copy OK
No errors occurred
AccurateRip summary
Track 1 accurately ripped (confidence 2) [54D70A37] (AR v2)Track 2 cannot be verified as accurate (confidence 200) [FF75F15A], AccurateRip returned [7A6BED8C] (AR v2)Track 3 cannot be verified as accurate (confidence 200) [DF7049C4], AccurateRip returned [603F3533] (AR v2)Track 4 cannot be verified as accurate (confidence 200) [AF4A0F32], AccurateRip returned [5EB1EB60] (AR v2)Track 5 cannot be verified as accurate (confidence 200) [E73CD2F7], AccurateRip returned [E4C7B8CC] (AR v2)Track 6 cannot be verified as accurate (confidence 200) [7F58688B], AccurateRip returned [66639888] (AR v2)Track 7 cannot be verified as accurate (confidence 200) [878F0FB3], AccurateRip returned [1BECF801] (AR v2)Track 8 cannot be verified as accurate (confidence 200) [B07EF59F], AccurateRip returned [5078D0F9] (AR v2)Track 9 cannot be verified as accurate (confidence 200) [D3B436D8], AccurateRip returned [C6C353F8] (AR v2)Track 10 cannot be verified as accurate (confidence 200) [1CD532CA], AccurateRip returned [A672593B] (AR v2)Track 11 cannot be verified as accurate (confidence 200) [9721656D], AccurateRip returned [B1297CC0] (AR v2)Track 12 cannot be verified as accurate (confidence 200) [F1A80AF8], AccurateRip returned [17263654] (AR v2)Track 13 cannot be verified as accurate (confidence 200) [00A85371], AccurateRip returned [C977F335] (AR v2)Track 14 cannot be verified as accurate (confidence 200) [ED8058BA], AccurateRip returned [40D83D24] (AR v2)Track 15 accurately ripped (confidence 2) [F3AF3CFF] (AR v2)Track 16 accurately ripped (confidence 2) [F40C7588] (AR v2)Track 17 accurately ripped (confidence 2) [93208092] (AR v2)
4 track(s) accurately ripped13 track(s) could not be verified as accurate
Some tracks could not be verified as accurate
End of status report
==== Log checksum ED96261D920A5CEF59340BB5218F7A1A931C263897D550AAF03E79E8F6A9B324 ====

1973 (2018). Roxy - Tonight's The Night Live

- Страна-производитель диска: USA
Издатель (лейбл): Reprise Records
Номер по каталогу: 567390-2
Продолжительность: 53.07:26
Matrix: (1014441) 1.4.567390.SA.1 01 0001 ifpi L779 [IFPI KK3Y]-01. Intro - Neil Young [0:00:50.55]
02. Tonight's the Night - Neil Young [0:06:48.11]
03. Roll Out the Barrel - Neil Young [0:00:52.23]
04. Mellow My Mind - Neil Young [0:03:10.47]
05. World on a String - Neil Young [0:02:43.28]
06. Band Intro - Neil Young [0:01:23.04]
07. Speakin' Out - Neil Young [0:06:37.14]
08. Candy Bar Rap - Neil Young [0:00:30.66]
09. Albuquerque - Neil Young [0:03:51.20]
10. Perry Como Rap - Neil Young [0:00:17.05]
11. New Mama - Neil Young [0:02:29.07]
12. David Geffen Rap - Neil Young [0:00:35.56]
13. Roll Another Number (For the Road) - Neil Young [0:04:40.39]
14. Candy Bar 2 Rap - Neil Young [0:00:27.29]
15. Tired Eyes - Neil Young [0:07:02.58]
16. Tonight's the Night (Pt. II) - Neil Young [0:06:37.49]
17. Walk On - Neil Young [0:03:37.72]
18. Outro - Neil Young [0:00:31.68]-

CD, Back, Matrix

EAC

Exact Audio Copy V1.3 from 2. September 2016
EAC extraction logfile from 22. January 2019, 20:13
Neil Young / ROXY - Tonight's the Night Live
Used drive : PLEXTOR DVDR PX-L890SA Adapter: 1 ID: 0
Read mode : SecureUtilize accurate stream : YesDefeat audio cache : YesMake use of C2 pointers : No
Read offset correction : 6Overread into Lead-In and Lead-Out : NoFill up missing offset samples with silence : YesDelete leading and trailing silent blocks : NoNull samples used in CRC calculations : YesUsed interface : Native Win32 interface for Win NT & 2000
Used output format : User Defined EncoderSelected bitrate : 1024 kBit/sQuality : HighAdd ID3 tag : NoCommand line compressor : C:\Program Files (x86)\Exact Audio Copy\Flac\flac.exeAdditional command line options : -V -8 -T "Date=%year%" -T "Genre=%genre%" %source%
TOC of the extracted CD
Track | Start | Length | Start sector | End sector --------------------------------------------------------- 1 | 0:00.00 | 0:50.55 | 0 | 3804 2 | 0:50.55 | 6:48.11 | 3805 | 34415 3 | 7:38.66 | 0:52.23 | 34416 | 38338 4 | 8:31.14 | 3:10.47 | 38339 | 52635 5 | 11:41.61 | 2:43.28 | 52636 | 64888 6 | 14:25.14 | 1:23.04 | 64889 | 71117 7 | 15:48.18 | 6:37.14 | 71118 | 100906 8 | 22:25.32 | 0:30.66 | 100907 | 103222 9 | 22:56.23 | 3:51.20 | 103223 | 120567 10 | 26:47.43 | 0:17.05 | 120568 | 121847 11 | 27:04.48 | 2:29.07 | 121848 | 133029 12 | 29:33.55 | 0:35.56 | 133030 | 135710 13 | 30:09.36 | 4:40.39 | 135711 | 156749 14 | 34:50.00 | 0:27.29 | 156750 | 158803 15 | 35:17.29 | 7:02.58 | 158804 | 190511 16 | 42:20.12 | 6:37.49 | 190512 | 220335 17 | 48:57.61 | 3:37.72 | 220336 | 236682 18 | 52:35.58 | 0:31.68 | 236683 | 239075
Range status and errors
Selected range
Filename H:\AUDIO\MUSIC\2018. Neil Young - Roxy - Tonight's The Night Live (Reprise 567390-2, USA)\Neil Young - ROXY - Tonight's the Night Live.wav
Peak level 97.1 % Extraction speed 3.3 X Range quality 100.0 % Test CRC B8FF6DD6 Copy CRC B8FF6DD6 Copy OK
No errors occurred
AccurateRip summary
Track 1 accurately ripped (confidence 19) [D8878042] (AR v2)Track 2 accurately ripped (confidence 19) [3DB4AF00] (AR v2)Track 3 accurately ripped (confidence 19) [8F10DEF6] (AR v2)Track 4 accurately ripped (confidence 19) [649C0C33] (AR v2)Track 5 accurately ripped (confidence 20) [A4B2AA5F] (AR v2)Track 6 accurately ripped (confidence 19) [A22DEEB3] (AR v2)Track 7 accurately ripped (confidence 19) [ED6AA094] (AR v2)Track 8 accurately ripped (confidence 19) [EF62F896] (AR v2)Track 9 accurately ripped (confidence 19) [BD363B06] (AR v2)Track 10 accurately ripped (confidence 19) [74CEE5B1] (AR v2)Track 11 accurately ripped (confidence 20) [7A9652A8] (AR v2)Track 12 accurately ripped (confidence 19) [DFB4B6AF] (AR v2)Track 13 accurately ripped (confidence 19) [4C4EF1A0] (AR v2)Track 14 accurately ripped (confidence 19) [0C413D06] (AR v2)Track 15 accurately ripped (confidence 19) [D52C70E7] (AR v2)Track 16 accurately ripped (confidence 19) [A01AEDB6] (AR v2)Track 17 accurately ripped (confidence 19) [BA930238] (AR v2)Track 18 accurately ripped (confidence 19) [065D4ACA] (AR v2)
All tracks accurately ripped
End of status report
==== Log checksum 08540494FA99957A69C0165E5BCF362C8F48434DF5274C93CA6B70E13A6F9D20 ====

1976 (2017). Hitchhiker

- Страна-производитель диска: EU
Издатель (лейбл): Reprise Records
Номер по каталогу: 9362-49113-8
Продолжительность: 33.41:06
Matrix: 0093624911388 AH86940-01 manufactured by optimal media GmbH IFPI L578 [IFPI 9746]-01. Pocahontas [0:03:26.46]
02. Powderfinger [0:03:22.62]
03. Captain Kennedy [0:02:51.45]
04. Hawaii [0:02:38.28]
05. Give Me Strength [0:03:40.22]
06. Ride My Llama [0:01:50.20]
07. Hitchhiker [0:04:37.19]
08. Campaigner [0:04:19.56]
09. Human Highway [0:03:16.64]
10. The Old Country Waltz [0:03:37.44]-

CD, Back, Matrix

EAC

Exact Audio Copy V1.0 beta 3 from 29. August 2011
EAC extraction logfile from 15. October 2017, 12:55
Neil Young / Hitchhiker
Used drive : PLEXTOR DVDR PX-L890SA Adapter: 3 ID: 1
Read mode : SecureUtilize accurate stream : YesDefeat audio cache : YesMake use of C2 pointers : No
Read offset correction : 6Overread into Lead-In and Lead-Out : NoFill up missing offset samples with silence : YesDelete leading and trailing silent blocks : NoNull samples used in CRC calculations : YesUsed interface : Native Win32 interface for Win NT & 2000
Used output format : User Defined EncoderSelected bitrate : 768 kBit/sQuality : HighAdd ID3 tag : NoCommand line compressor : C:\Program Files (x86)\Exact Audio Copy\Flac\flac.exeAdditional command line options : -V -8 -T "Date=%year%" -T "Genre=%genre%" %source%
TOC of the extracted CD
Track | Start | Length | Start sector | End sector --------------------------------------------------------- 1 | 0:00.00 | 3:26.46 | 0 | 15495 2 | 3:26.46 | 3:22.62 | 15496 | 30707 3 | 6:49.33 | 2:51.45 | 30708 | 43577 4 | 9:41.03 | 2:38.28 | 43578 | 55455 5 | 12:19.31 | 3:40.22 | 55456 | 71977 6 | 15:59.53 | 1:50.20 | 71978 | 80247 7 | 17:49.73 | 4:37.19 | 80248 | 101041 8 | 22:27.17 | 4:19.56 | 101042 | 120522 9 | 26:46.73 | 3:16.64 | 120523 | 135286 10 | 30:03.62 | 3:37.44 | 135287 | 151605
Range status and errors
Selected range
Filename H:\MUSIC\2017. Neil Young - Hitchhiker (Reprise 9362-49113-8, Germany)\Neil Young - Hitchhiker.wav
Peak level 97.5 % Extraction speed 2.7 X Range quality 100.0 % Test CRC 3FCA7D6D Copy CRC 3FCA7D6D Copy OK
No errors occurred
AccurateRip summary
Track 1 accurately ripped (confidence 18) [1AE94DD1] (AR v2)Track 2 accurately ripped (confidence 18) [86A94ED8] (AR v2)Track 3 accurately ripped (confidence 18) [DF138621] (AR v2)Track 4 accurately ripped (confidence 18) [359A23BB] (AR v2)Track 5 accurately ripped (confidence 18) [1D951E97] (AR v2)Track 6 accurately ripped (confidence 18) [D66A8EF4] (AR v2)Track 7 accurately ripped (confidence 17) [20372432] (AR v2)Track 8 accurately ripped (confidence 18) [A5DC7541] (AR v2)Track 9 accurately ripped (confidence 18) [9162C655] (AR v2)Track 10 accurately ripped (confidence 17) [A0B0D4A0] (AR v2)
All tracks accurately ripped
End of status report
==== Log checksum C0D5D57F9B75A2955B77975B88444066DA72332BABD9CF0D191FF7A15B9F8B48 ====

1976 (2018). Songs For Judy

- Страна-производитель диска: USA
Издатель (лейбл): Shakey Pictures Records
Номер по каталогу: 574192-2
Продолжительность: 79.23:82
Matrix: (1060026) 1.4.574192.SA.1 04 0101 ifpi L779 [IFPI KKBJ]-01. Songs for Judy Intro - Neil Young [0:03:25.40]
02. Too Far Gone - Neil Young [0:03:14.57]
03. No One Seems to Know - Neil Young [0:02:29.09]
04. Heart of Gold - Neil Young [0:02:53.66]
05. White Line - Neil Young [0:02:45.49]
06. Love Is a Rose - Neil Young [0:02:20.03]
07. After the Gold Rush - Neil Young [0:04:15.40]
08. Human Highway - Neil Young [0:03:04.20]
09. Tell Me Why - Neil Young [0:03:34.54]
10. Mr. Soul - Neil Young [0:03:06.24]
11. Mellow My Mind - Neil Young [0:02:29.65]
12. Give Me Strength - Neil Young [0:03:27.09]
13. A Man Needs a Maid - Neil Young [0:04:53.68]
14. Roll Another Number - Neil Young [0:02:22.36]
15. Journey Through the Past - Neil Young [0:03:17.35]
16. Harvest - Neil Young [0:02:42.72]
17. Campaigner - Neil Young [0:03:30.39]
18. Old Laughing Lady - Neil Young [0:05:18.34]
19. The Losing End (When You're On) - Neil Young [0:03:51.33]
20. Here We Are In the Years - Neil Young [0:03:56.03]
21. The Needle and the Damage Done - Neil Young [0:02:26.54]
22. Pocahontas - Neil Young [0:03:49.09]
23. Sugar Mountain - Neil Young [0:06:08.13]-

CD, Back, Matrix

EAC

Exact Audio Copy V1.3 from 2. September 2016
EAC extraction logfile from 22. January 2019, 19:34
Neil Young / Songs for Judy
Used drive : PLEXTOR DVDR PX-L890SA Adapter: 1 ID: 0
Read mode : SecureUtilize accurate stream : YesDefeat audio cache : YesMake use of C2 pointers : No
Read offset correction : 6Overread into Lead-In and Lead-Out : NoFill up missing offset samples with silence : YesDelete leading and trailing silent blocks : NoNull samples used in CRC calculations : YesUsed interface : Native Win32 interface for Win NT & 2000
Used output format : User Defined EncoderSelected bitrate : 1024 kBit/sQuality : HighAdd ID3 tag : NoCommand line compressor : C:\Program Files (x86)\Exact Audio Copy\Flac\flac.exeAdditional command line options : -V -8 -T "Date=%year%" -T "Genre=%genre%" %source%
TOC of the extracted CD
Track | Start | Length | Start sector | End sector --------------------------------------------------------- 1 | 0:00.00 | 3:25.40 | 0 | 15414 2 | 3:25.40 | 3:14.57 | 15415 | 30021 3 | 6:40.22 | 2:29.09 | 30022 | 41205 4 | 9:09.31 | 2:53.66 | 41206 | 54246 5 | 12:03.22 | 2:45.49 | 54247 | 66670 6 | 14:48.71 | 2:20.03 | 66671 | 77173 7 | 17:08.74 | 4:15.40 | 77174 | 96338 8 | 21:24.39 | 3:04.20 | 96339 | 110158 9 | 24:28.59 | 3:34.54 | 110159 | 126262 10 | 28:03.38 | 3:06.24 | 126263 | 140236 11 | 31:09.62 | 2:29.65 | 140237 | 151476 12 | 33:39.52 | 3:27.09 | 151477 | 167010 13 | 37:06.61 | 4:53.68 | 167011 | 189053 14 | 42:00.54 | 2:22.36 | 189054 | 199739 15 | 44:23.15 | 3:17.35 | 199740 | 214549 16 | 47:40.50 | 2:42.72 | 214550 | 226771 17 | 50:23.47 | 3:30.39 | 226772 | 242560 18 | 53:54.11 | 5:18.34 | 242561 | 266444 19 | 59:12.45 | 3:51.33 | 266445 | 283802 20 | 63:04.03 | 3:56.03 | 283803 | 301505 21 | 67:00.06 | 2:26.54 | 301506 | 312509 22 | 69:26.60 | 3:49.09 | 312510 | 329693 23 | 73:15.69 | 6:08.13 | 329694 | 357306
Range status and errors
Selected range
Filename H:\AUDIO\MUSIC\2018. Neil Young - Songs For Judy (Shakey Pictures Record 574 192-2, USA)\Neil Young - Songs for Judy.wav
Peak level 96.5 % Extraction speed 3.7 X Range quality 100.0 % Test CRC 1CE9F2D1 Copy CRC 1CE9F2D1 Copy OK
No errors occurred
AccurateRip summary
Track 1 accurately ripped (confidence 19) [CDF7A38D] (AR v2)Track 2 accurately ripped (confidence 19) [F6B62674] (AR v2)Track 3 accurately ripped (confidence 19) [E23F0E10] (AR v2)Track 4 accurately ripped (confidence 19) [005359AE] (AR v2)Track 5 accurately ripped (confidence 19) [9F07FFDE] (AR v2)Track 6 accurately ripped (confidence 19) [7DBFE337] (AR v2)Track 7 accurately ripped (confidence 19) [01A2A175] (AR v2)Track 8 accurately ripped (confidence 19) [84199D2F] (AR v2)Track 9 accurately ripped (confidence 19) [87B815C4] (AR v2)Track 10 accurately ripped (confidence 19) [237CD5F5] (AR v2)Track 11 accurately ripped (confidence 19) [3BAD63E9] (AR v2)Track 12 accurately ripped (confidence 19) [8A818B57] (AR v2)Track 13 accurately ripped (confidence 18) [C6167F0C] (AR v2)Track 14 accurately ripped (confidence 19) [C95AAF3A] (AR v2)Track 15 accurately ripped (confidence 19) [5285919D] (AR v2)Track 16 accurately ripped (confidence 19) [5A19DD68] (AR v2)Track 17 accurately ripped (confidence 19) [91EE1FD7] (AR v2)Track 18 accurately ripped (confidence 19) [092C6FAE] (AR v2)Track 19 accurately ripped (confidence 19) [1DAE3D45] (AR v2)Track 20 accurately ripped (confidence 19) [D4D2345D] (AR v2)Track 21 accurately ripped (confidence 19) [940D3410] (AR v2)Track 22 accurately ripped (confidence 19) [73D8085F] (AR v2)Track 23 accurately ripped (confidence 19) [26BD8209] (AR v2)
All tracks accurately ripped
End of status report
==== Log checksum BE0B3F0B1A18CF381C645939FAF7AD64CA827057177104C5B181E8EDC35FD749 ====

1988 (2015). Bluenote Cafe

- Страна-производитель диска: USA
Издатель (лейбл): Reprise Records
Номер по каталогу: 550219-2
Продолжительность: 78.40:70+67.43:00
Matrix 1: M1S2 1 550219-2.1 TEXT AH02 IFPI L247 [IFPI 2U9I]
Matrix 2: 1 550219-2.2 TEXT AH02 M0S1 IFPI L247 [IFPI 2U7Q]-

Tracklist

Disc 1:
01. Welcome To The Big Room - Neil Young and Bluenote Cafe [0:07:30.64]
02. Don't Take Your Love Away From Me - Neil Young and Bluenote Cafe [0:09:30.52]
03. This Note's For You - Neil Young and Bluenote Cafe [0:05:24.32]
04. Ten Men Workin' - Neil Young and Bluenote Cafe [0:08:31.59]
05. Life In The City - Neil Young and Bluenote Cafe [0:03:51.47]
06. Hello Lonely Woman - Neil Young and Bluenote Cafe [0:04:50.65]
07. Soul Of A Woman - Neil Young and Bluenote Cafe [0:05:53.68]
08. Married Man - Neil Young and Bluenote Cafe [0:03:05.03]
09. Bad News Comes To Town - Neil Young and Bluenote Cafe [0:08:00.02]
10. Ain't It The Truth - Neil Young and Bluenote Cafe [0:07:30.41]
11. One Thing - Neil Young and Bluenote Cafe [0:06:41.40]
12. Twilight - Neil Young and Bluenote Cafe [0:07:49.47]
Disc 2:
01. I'm Goin' - Neil Young and Bluenote Cafe [0:05:34.08]
02. Ordinary People - Neil Young and Bluenote Cafe [0:12:50.58]
03. Crime In The City - Neil Young and Bluenote Cafe [0:07:20.63]
04. Crime Of The Heart - Neil Young and Bluenote Cafe [0:05:36.73]
05. Welcome Rap - Neil Young and Bluenote Cafe [0:00:34.53]
06. Doghouse - Neil Young and Bluenote Cafe [0:04:10.17]
07. Fool For Your Love - Neil Young and Bluenote Cafe [0:04:12.39]
08. Encore Rap - Neil Young and Bluenote Cafe [0:01:07.34]
09. On The Way Home - Neil Young and Bluenote Cafe [0:02:55.66]
10. Sunny Inside - Neil Young and Bluenote Cafe [0:03:53.24]
11. Tonight's The Night - Neil Young and Bluenote Cafe [0:19:26.40]
-

CDs

Back, Matrix

EAC CD1

Exact Audio Copy V1.3 from 2. September 2016
EAC extraction logfile from 13. March 2019, 1:23
Neil Young and Bluenote Cafe / Bluenote Cafe CD1
Used drive : PLEXTOR DVDR PX-L890SA Adapter: 1 ID: 1
Read mode : SecureUtilize accurate stream : YesDefeat audio cache : YesMake use of C2 pointers : No
Read offset correction : 6Overread into Lead-In and Lead-Out : NoFill up missing offset samples with silence : YesDelete leading and trailing silent blocks : NoNull samples used in CRC calculations : YesUsed interface : Native Win32 interface for Win NT & 2000
Used output format : User Defined EncoderSelected bitrate : 1024 kBit/sQuality : HighAdd ID3 tag : NoCommand line compressor : C:\Program Files (x86)\Exact Audio Copy\Flac\flac.exeAdditional command line options : -V -8 -T "Date=%year%" -T "Genre=%genre%" %source%
TOC of the extracted CD
Track | Start | Length | Start sector | End sector --------------------------------------------------------- 1 | 0:00.00 | 7:30.64 | 0 | 33813 2 | 7:30.64 | 9:30.52 | 33814 | 76615 3 | 17:01.41 | 5:24.32 | 76616 | 100947 4 | 22:25.73 | 8:31.59 | 100948 | 139331 5 | 30:57.57 | 3:51.47 | 139332 | 156703 6 | 34:49.29 | 4:50.65 | 156704 | 178518 7 | 39:40.19 | 5:53.68 | 178519 | 205061 8 | 45:34.12 | 3:05.03 | 205062 | 218939 9 | 48:39.15 | 8:00.02 | 218940 | 254941 10 | 56:39.17 | 7:30.41 | 254942 | 288732 11 | 64:09.58 | 6:41.40 | 288733 | 318847 12 | 70:51.23 | 7:49.47 | 318848 | 354069
Range status and errors
Selected range
Filename H:\AUDIO\MUSIC\2015. Neil Young - Bluenote Cafe (Reprise 550219-2, USA)\Disc 1\Neil Young and Bluenote Cafe - Bluenote Cafe CD1.wav
Peak level 100.0 % Extraction speed 3.7 X Range quality 100.0 % Test CRC EE5C32A7 Copy CRC EE5C32A7 Copy OK
No errors occurred
AccurateRip summary
Track 1 accurately ripped (confidence 200) [B0E0B416] (AR v2)Track 2 accurately ripped (confidence 200) [B7EABC50] (AR v2)Track 3 accurately ripped (confidence 200) [08D617D2] (AR v2)Track 4 accurately ripped (confidence 200) [179FBEA0] (AR v2)Track 5 accurately ripped (confidence 200) [7E234DCF] (AR v2)Track 6 accurately ripped (confidence 200) [D252A061] (AR v2)Track 7 accurately ripped (confidence 200) [D6C9B667] (AR v2)Track 8 accurately ripped (confidence 200) [CCA6D30C] (AR v2)Track 9 accurately ripped (confidence 200) [9196584D] (AR v2)Track 10 accurately ripped (confidence 200) [4530E7E1] (AR v2)Track 11 accurately ripped (confidence 200) [C7FCA6AC] (AR v2)Track 12 accurately ripped (confidence 197) [E4BCCCB4] (AR v2)
All tracks accurately ripped
End of status report
==== Log checksum 660F5EAC20D92241C534F32E234BF74FCA6CCD36A98FB58198CF9080E706BACC ====

EAC CD2

Exact Audio Copy V1.3 from 2. September 2016
EAC extraction logfile from 13. March 2019, 1:43
Neil Young and Bluenote Cafe / Bluenote Cafe CD2
Used drive : PLEXTOR DVDR PX-L890SA Adapter: 1 ID: 1
Read mode : SecureUtilize accurate stream : YesDefeat audio cache : YesMake use of C2 pointers : No
Read offset correction : 6Overread into Lead-In and Lead-Out : NoFill up missing offset samples with silence : YesDelete leading and trailing silent blocks : NoNull samples used in CRC calculations : YesUsed interface : Native Win32 interface for Win NT & 2000
Used output format : User Defined EncoderSelected bitrate : 1024 kBit/sQuality : HighAdd ID3 tag : NoCommand line compressor : C:\Program Files (x86)\Exact Audio Copy\Flac\flac.exeAdditional command line options : -V -8 -T "Date=%year%" -T "Genre=%genre%" %source%
TOC of the extracted CD
Track | Start | Length | Start sector | End sector --------------------------------------------------------- 1 | 0:00.00 | 5:34.08 | 0 | 25057 2 | 5:34.08 | 12:50.58 | 25058 | 82865 3 | 18:24.66 | 7:20.63 | 82866 | 115928 4 | 25:45.54 | 5:36.73 | 115929 | 141201 5 | 31:22.52 | 0:34.53 | 141202 | 143804 6 | 31:57.30 | 4:10.17 | 143805 | 162571 7 | 36:07.47 | 4:12.39 | 162572 | 181510 8 | 40:20.11 | 1:07.34 | 181511 | 186569 9 | 41:27.45 | 2:55.66 | 186570 | 199760 10 | 44:23.36 | 3:53.24 | 199761 | 217259 11 | 48:16.60 | 19:26.40 | 217260 | 304749
Range status and errors
Selected range
Filename H:\AUDIO\MUSIC\2015. Neil Young - Bluenote Cafe (Reprise 550219-2, USA)\Disc 2\Neil Young and Bluenote Cafe - Bluenote Cafe CD2.wav
Peak level 100.0 % Extraction speed 6.0 X Range quality 99.9 % Test CRC 45A02CF3 Copy CRC 45A02CF3 Copy OK
No errors occurred
AccurateRip summary
Track 1 accurately ripped (confidence 200) [9D18D1F7] (AR v2)Track 2 accurately ripped (confidence 200) [D63153C9] (AR v2)Track 3 accurately ripped (confidence 200) [6BC27389] (AR v2)Track 4 accurately ripped (confidence 200) [A26346C0] (AR v2)Track 5 accurately ripped (confidence 200) [9BE740B6] (AR v2)Track 6 accurately ripped (confidence 200) [793C701A] (AR v2)Track 7 accurately ripped (confidence 200) [6636B299] (AR v2)Track 8 accurately ripped (confidence 200) [A8B5F023] (AR v2)Track 9 accurately ripped (confidence 200) [6D4C6E27] (AR v2)Track 10 accurately ripped (confidence 200) [0C1BA220] (AR v2)Track 11 accurately ripped (confidence 181) [3A1CBDC9] (AR v2)
All tracks accurately ripped
End of status report
==== Log checksum DF8BA3474B9C8DAC0A5C204D91D0AD221A91D536F152A108ADFA93D739F275E2 ====

1992 (2009). Dreamin Man Live '92

- Страна-производитель диска: USA
Издатель (лейбл): Reprise Records
Номер по каталогу: 511277-2
Продолжительность: 55.51:10
Matrix: Z83943 M1S1 1 511277-2 TEXT 02 ifpi L909 [IFPI 2U3X]-01. Dreamin' Man - Neil Young [0:05:03.13]
02. Such A Woman - Neil Young [0:04:59.29]
03. One Of These Days - Neil Young [0:04:59.34]
04. Harvest Moon - Neil Young [0:05:26.03]
05. You And Me - Neil Young [0:04:01.05]
06. Hank To Hendrix - Neil Young [0:05:30.72]
07. Unknown Legend - Neil Young [0:04:47.32]
08. Old King - Neil Young [0:03:10.27]
09. Natural Beauty - Neil Young [0:11:26.08]
10. War Of Man - Neil Young [0:06:27.37]-

CD, Back, Matrix

EAC

Exact Audio Copy V1.3 from 2. September 2016
EAC extraction logfile from 12. March 2019, 19:59
Neil Young / Dreamin' Man Live '92
Used drive : PLEXTOR DVDR PX-L890SA Adapter: 1 ID: 1
Read mode : SecureUtilize accurate stream : YesDefeat audio cache : YesMake use of C2 pointers : No
Read offset correction : 6Overread into Lead-In and Lead-Out : NoFill up missing offset samples with silence : YesDelete leading and trailing silent blocks : NoNull samples used in CRC calculations : YesUsed interface : Native Win32 interface for Win NT & 2000
Used output format : User Defined EncoderSelected bitrate : 1024 kBit/sQuality : HighAdd ID3 tag : NoCommand line compressor : C:\Program Files (x86)\Exact Audio Copy\Flac\flac.exeAdditional command line options : -V -8 -T "Date=%year%" -T "Genre=%genre%" %source%
TOC of the extracted CD
Track | Start | Length | Start sector | End sector --------------------------------------------------------- 1 | 0:00.00 | 5:03.13 | 0 | 22737 2 | 5:03.13 | 4:59.29 | 22738 | 45191 3 | 10:02.42 | 4:59.34 | 45192 | 67650 4 | 15:02.01 | 5:26.03 | 67651 | 92103 5 | 20:28.04 | 4:01.05 | 92104 | 110183 6 | 24:29.09 | 5:30.72 | 110184 | 135005 7 | 30:00.06 | 4:47.32 | 135006 | 156562 8 | 34:47.38 | 3:10.27 | 156563 | 170839 9 | 37:57.65 | 11:26.08 | 170840 | 222297 10 | 49:23.73 | 6:27.37 | 222298 | 251359
Range status and errors
Selected range
Filename H:\AUDIO\MUSIC\2009. Neil Young - Dreamin Man Live '92 (Reprise 511277-2, USA)\Neil Young - Dreamin' Man Live '92.wav
Peak level 97.6 % Extraction speed 6.1 X Range quality 100.0 % Test CRC F3E46B3F Copy CRC F3E46B3F Copy OK
No errors occurred
AccurateRip summary
Track 1 accurately ripped (confidence 43) [55BCD023] (AR v2)Track 2 accurately ripped (confidence 42) [86587D19] (AR v2)Track 3 accurately ripped (confidence 41) [A3082BC3] (AR v2)Track 4 accurately ripped (confidence 41) [B31CD48F] (AR v2)Track 5 accurately ripped (confidence 42) [FB7569FD] (AR v2)Track 6 accurately ripped (confidence 42) [32D0EFCC] (AR v2)Track 7 accurately ripped (confidence 43) [2CC44D1F] (AR v2)Track 8 accurately ripped (confidence 41) [87A70F9F] (AR v2)Track 9 accurately ripped (confidence 41) [25148923] (AR v2)Track 10 accurately ripped (confidence 41) [5F5FD786] (AR v2)
All tracks accurately ripped
End of status report
==== Log checksum DE35E495F3AFC0B8F3FFACE441A90E1597A3821137EC5914A46A06DEE731B2C0 ====

If you like the topic, please click share to help develop our site.

To download the file disable ad blocking, and reload the page.

disable adblock How to disable ad blocking?

Download by magnet link 3.84 GB Download Torrent

Login using:

Similar topics



   
Current time is: 20-Jun 18:01 :: All times are UTC + 3