Vandenberg / Vandenberg (Reissue 2002)

Жанр: Hard Rock
Носитель: CD
Страна-производитель диска (релиза): USA
Год издания: 1982
Издатель (лейбл): Wounded Bird Records
Номер по каталогу: WOU 9005
Страна исполнителя (группы): USA
Аудиокодек: FLAC (*.flac)
Тип рипа: image+.cue
Битрейт аудио: lossless
Продолжительность: 37:11
Источник: собственный рип
Наличие сканов в содержимом раздачи: да (сетевые)
Треклист:
01. Your Love Is In Vain (4:15)
02. Back On My Feet (3:56)
03. Wait (5:11)
04. Burning Heart (4:11)
05. Ready For You (3:57)
06. Too Late (4:12)
07. Nothing To Lose (3:24)
08. Lost In A City (3:57)
09. Out In The Streets (4:07)

Лог создания рипа

Exact Audio Copy V1.3 from 2. September 2016
EAC extraction logfile from 16. March 2019, 11:09
Vandenberg / Vandenberg
Used drive : PLEXTOR DVDR PX-L890SA Adapter: 1 ID: 2
Read mode : SecureUtilize accurate stream : YesDefeat audio cache : YesMake use of C2 pointers : No
Read offset correction : 6Overread into Lead-In and Lead-Out : NoFill up missing offset samples with silence : YesDelete leading and trailing silent blocks : NoNull samples used in CRC calculations : YesUsed interface : Native Win32 interface for Win NT & 2000
Used output format : User Defined EncoderSelected bitrate : 896 kBit/sQuality : HighAdd ID3 tag : NoCommand line compressor : C:\Program Files\Exact Audio Copy\FLAC\FLAC.EXEAdditional command line options : -6 -V -T "ARTIST=%artist%" -T "TITLE=%title%" -T "ALBUM=%albumtitle%" -T "DATE=%year%" -T "TRACKNUMBER=%tracknr%" -T "GENRE=%genre%" -T "COMMENT=%comment%" -T "BAND=%albuminterpret%" -T "ALBUMARTIST=%albuminterpret%" -T "COMPOSER=%composer%" %haslyrics%--tag-from-file=LYRICS="%lyricsfile%"%haslyrics% -T "DISCNUMBER=%cdnumber%" -T "TOTALDISCS=%totalcds%" -T "TOTALTRACKS=%numtracks%" %hascover%--picture="%coverfile%"%hascover% %source% -o %dest%
TOC of the extracted CD
Track | Start | Length | Start sector | End sector --------------------------------------------------------- 1 | 0:00.00 | 4:15.17 | 0 | 19141 2 | 4:15.17 | 3:55.68 | 19142 | 36834 3 | 8:11.10 | 5:11.31 | 36835 | 60190 4 | 13:22.41 | 4:10.72 | 60191 | 79012 5 | 17:33.38 | 3:57.09 | 79013 | 96796 6 | 21:30.47 | 4:12.12 | 96797 | 115708 7 | 25:42.59 | 3:23.65 | 115709 | 130998 8 | 29:06.49 | 3:57.30 | 130999 | 148803 9 | 33:04.04 | 4:07.05 | 148804 | 167333
Range status and errors
Selected range
Filename D:\Music\Мои раздачи\Vandenberg - Vandenberg.wav
Peak level 100.0 % Extraction speed 5.4 X Range quality 100.0 % Test CRC A0932AB0 Copy CRC A0932AB0 Copy OK
No errors occurred
AccurateRip summary
Track 1 not present in databaseTrack 2 not present in databaseTrack 3 not present in databaseTrack 4 not present in databaseTrack 5 not present in databaseTrack 6 not present in databaseTrack 7 not present in databaseTrack 8 not present in databaseTrack 9 not present in database
None of the tracks are present in the AccurateRip database
End of status report
---- CUETools DB Plugin V2.1.6
[CTDB TOCID: CiYHDogJ2irqeA.pBrUg5Lg6.AQ-] disk not present in databaseSubmit result: CiYHDogJ2irqeA.pBrUg5Lg6.AQ- has been uploaded
==== Log checksum EB836F911DF94FE8F67568E89FE424A70EEB6BBB0E52CBF4314C892B81FBC02E ====

Лог проверки качества

-----------------------
DON'T MODIFY THIS FILE
-----------------------
PERFORMER: auCDtect Task Manager, ver. 1.6.0 RC1 build 1.6.0.1Copyright (c) 2008-2010 y-soft. All rights reservedhttp://y-soft.org
ANALYZER: auCDtect: CD records authenticity detector, version 0.8.2Copyright (c) 2004 Oleg Berngardt. All rights reserved.Copyright (c) 2004 Alexander Djourik. All rights reserved.
FILE: Vandenberg - Vandenberg.flac Size: 264133145 Hash: 08D2BFE295815B9EBF1E50080967A811 Accuracy: -m0 Conclusion: CDDA 100% Signature: ADCF3A39A65213A1318EEA0E8C18696D4298344B

Скриншот спектра частот

Лог DRM

foobar2000 1.2.9 / Dynamic Range Meter 1.1.1log date: 2019-03-16 19:49:11
--------------------------------------------------------------------------------Analyzed: Vandenberg / Vandenberg--------------------------------------------------------------------------------
DR Peak RMS Duration Track--------------------------------------------------------------------------------DR14 -0.50 dB -15.89 dB 4:15 01-Your Love Is In VainDR13 -0.68 dB -14.94 dB 3:56 02-Back On My FeetDR14 -0.53 dB -16.18 dB 5:11 03-WaitDR13 0.00 dB -15.70 dB 4:11 04-Burning HeartDR13 -1.48 dB -16.87 dB 3:57 05-Ready For YouDR13 0.00 dB -15.12 dB 4:12 06-Too LateDR13 -1.22 dB -17.18 dB 3:24 07-Nothing To LoseDR13 -2.31 dB -16.69 dB 3:57 08-Lost In A CityDR12 -2.29 dB -15.91 dB 4:07 09-Out In The Streets--------------------------------------------------------------------------------
Number of tracks: 9Official DR value: DR13
Samplerate: 44100 HzChannels: 2Bits per sample: 16Bitrate: 947 kbpsCodec: FLAC================================================================================

Об исполнителе (группе)

https://www.discogs.com/artist/254411-Vandenberg

If you like the topic, please click share to help develop our site.

To download the file disable ad blocking, and reload the page.

disable adblock How to disable ad blocking?

Download by magnet link 253 MB Download Torrent

Login using:

Similar topics



   
Current time is: 20-Jun 18:14 :: All times are UTC + 3