Rival Sons

ϟ Collection ϟ
Жанр: Hard Rock | Blues Rock
Носитель: CD
Год издания: 2011 - 2012
Страна исполнителя (группы): USA
Аудиокодек: FLAC (*.flac)
Тип рипа: tracks+.cue
Битрейт аудио: lossless
Источник: Dah, fortysixand2
Наличие сканов в содержимом раздачи: да

2011 (2012) [Japan Redux Edition] | Pressure & Time | Hydrant Music ‎(QIHC 10041) | 37:40

Треклист:
01. All Over The Road (2:54)
02. Young Love (3:00)
03. Pressue and Time (3:19)
04. Only One (3:14)
05. Get Me (2:24)
06. Burn Down Los Angeles (2:29)
07. Save Me (2:33)
08. Gypsy Heart (3:29)
09. White Noise (3:04)
10. Face of Light (4:32)
11. Company Man (Bonus Track) (3:11)
12. Life For This Road (Bonus Track) (3:31)

Лог создания рипа

Exact Audio Copy V1.0 beta 3 from 29. August 2011
EAC extraction logfile from 15. October 2015, 11:16
Rival Sons / Pressure and Time - Redux
Used drive : Optiarc DVD RW AD-7760H Adapter: 0 ID: 1
Read mode : SecureUtilize accurate stream : YesDefeat audio cache : YesMake use of C2 pointers : No
Read offset correction : 48Overread into Lead-In and Lead-Out : NoFill up missing offset samples with silence : YesDelete leading and trailing silent blocks : NoNull samples used in CRC calculations : YesUsed interface : Native Win32 interface for Win NT & 2000Gap handling : Appended to previous track
Used output format : Internal WAV RoutinesSample format : 44.100 Hz; 16 Bit; Stereo
TOC of the extracted CD
Track | Start | Length | Start sector | End sector --------------------------------------------------------- 1 | 0:00.00 | 2:54.13 | 0 | 13062 2 | 2:54.13 | 2:59.72 | 13063 | 26559 3 | 5:54.10 | 3:19.08 | 26560 | 41492 4 | 9:13.18 | 3:14.32 | 41493 | 56074 5 | 12:27.50 | 2:23.71 | 56075 | 66870 6 | 14:51.46 | 2:28.50 | 66871 | 78020 7 | 17:20.21 | 2:32.60 | 78021 | 89480 8 | 19:53.06 | 3:28.74 | 89481 | 105154 9 | 23:22.05 | 3:04.08 | 105155 | 118962 10 | 26:26.13 | 4:31.55 | 118963 | 139342 11 | 30:57.68 | 3:11.03 | 139343 | 153670 12 | 34:08.71 | 3:30.55 | 153671 | 169475
Track 1
Filename C:\Users\Maria\Desktop\EAC\2012 - Pressure & Time - Redux (flac & mp3 320)\01 All Over The Road.wav
Pre-gap length 0:00:02.00
Peak level 99.5 % Extraction speed 2.5 X Track quality 100.0 % Test CRC 311839A1 Copy CRC 311839A1 Cannot be verified as accurate (confidence 12) [0CAD7773], AccurateRip returned [BC0A6277] (AR v2) Copy OK
Track 2
Filename C:\Users\Maria\Desktop\EAC\2012 - Pressure & Time - Redux (flac & mp3 320)\02 Young Love.wav
Peak level 99.5 % Extraction speed 2.8 X Track quality 100.0 % Test CRC 864116A2 Copy CRC 864116A2 Cannot be verified as accurate (confidence 12) [EFE6B3A7], AccurateRip returned [5671A2A1] (AR v2) Copy OK
Track 3
Filename C:\Users\Maria\Desktop\EAC\2012 - Pressure & Time - Redux (flac & mp3 320)\03 Pressure and Time.wav
Peak level 99.5 % Extraction speed 3.1 X Track quality 100.0 % Test CRC 8B6C2505 Copy CRC 8B6C2505 Cannot be verified as accurate (confidence 12) [85592158], AccurateRip returned [18C097C6] (AR v2) Copy OK
Track 4
Filename C:\Users\Maria\Desktop\EAC\2012 - Pressure & Time - Redux (flac & mp3 320)\04 Only One.wav
Peak level 99.5 % Extraction speed 3.3 X Track quality 100.0 % Test CRC 0B374649 Copy CRC 0B374649 Cannot be verified as accurate (confidence 12) [0F789D33], AccurateRip returned [09E33EC1] (AR v2) Copy OK
Track 5
Filename C:\Users\Maria\Desktop\EAC\2012 - Pressure & Time - Redux (flac & mp3 320)\05 Get Me.wav
Pre-gap length 0:00:02.56
Peak level 98.8 % Extraction speed 3.3 X Track quality 100.0 % Test CRC 87969FB0 Copy CRC 87969FB0 Cannot be verified as accurate (confidence 12) [08C2269A], AccurateRip returned [8EC1A029] (AR v2) Copy OK
Track 6
Filename C:\Users\Maria\Desktop\EAC\2012 - Pressure & Time - Redux (flac & mp3 320)\06 Burn Down Los Angeles.wav
Peak level 98.8 % Extraction speed 3.4 X Track quality 100.0 % Test CRC CA3B369A Copy CRC CA3B369A Cannot be verified as accurate (confidence 12) [D8BA0230], AccurateRip returned [DEE0B008] (AR v2) Copy OK
Track 7
Filename C:\Users\Maria\Desktop\EAC\2012 - Pressure & Time - Redux (flac & mp3 320)\07 Save Me.wav
Peak level 99.5 % Extraction speed 3.6 X Track quality 100.0 % Test CRC 268C3C66 Copy CRC 268C3C66 Cannot be verified as accurate (confidence 12) [8E99AF0A], AccurateRip returned [0FFC4E01] (AR v2) Copy OK
Track 8
Filename C:\Users\Maria\Desktop\EAC\2012 - Pressure & Time - Redux (flac & mp3 320)\08 Gyspy Heart.wav
Peak level 99.5 % Extraction speed 3.9 X Track quality 100.0 % Test CRC 310D1483 Copy CRC 310D1483 Cannot be verified as accurate (confidence 12) [5B0D4828], AccurateRip returned [5D934C42] (AR v2) Copy OK
Track 9
Filename C:\Users\Maria\Desktop\EAC\2012 - Pressure & Time - Redux (flac & mp3 320)\09 White Noise.wav
Peak level 99.5 % Extraction speed 4.0 X Track quality 100.0 % Test CRC B7F2FA2F Copy CRC B7F2FA2F Cannot be verified as accurate (confidence 12) [9CB054EE], AccurateRip returned [9D014438] (AR v2) Copy OK
Track 10
Filename C:\Users\Maria\Desktop\EAC\2012 - Pressure & Time - Redux (flac & mp3 320)\10 Face of Light.wav
Pre-gap length 0:00:02.50
Peak level 99.5 % Extraction speed 4.5 X Track quality 100.0 % Test CRC EE9D8926 Copy CRC EE9D8926 Cannot be verified as accurate (confidence 12) [9D1ADE9B], AccurateRip returned [9E5BEE6A] (AR v2) Copy OK
Track 11
Filename C:\Users\Maria\Desktop\EAC\2012 - Pressure & Time - Redux (flac & mp3 320)\11 Company Man (Bonus Track).wav
Pre-gap length 0:00:04.50
Peak level 99.5 % Extraction speed 4.4 X Track quality 100.0 % Test CRC F101C8EF Copy CRC F101C8EF Cannot be verified as accurate (confidence 12) [2D0581D4], AccurateRip returned [82C30118] (AR v2) Copy OK
Track 12
Filename C:\Users\Maria\Desktop\EAC\2012 - Pressure & Time - Redux (flac & mp3 320)\12 Life For This Road (Bonus Track).wav
Pre-gap length 0:00:01.70
Peak level 98.8 % Extraction speed 4.6 X Track quality 100.0 % Test CRC FACFF6E7 Copy CRC FACFF6E7 Cannot be verified as accurate (confidence 12) [CE4B683A], AccurateRip returned [2B62420A] (AR v2) Copy OK
No tracks could be verified as accurateYou may have a different pressing from the one(s) in the database
No errors occurred
End of status report
==== Log checksum 9ED004EE92A36314A570D61DBF984F6CBBA5427F96BFA2183B339A58F3526846 ====

Содержание индексной карты (.CUE)

REM DATE 2012REM DISCID A908D30CREM COMMENT "ExactAudioCopy v1.0b3"PERFORMER "Rival Sons"TITLE "Pressure and Time - Redux"FILE "01 All Over The Road.wav" WAVE  TRACK 01 AUDIO    TITLE "All Over The Road"    PERFORMER "Rival Sons"    INDEX 01 00:00:00FILE "02 Young Love.wav" WAVE  TRACK 02 AUDIO    TITLE "Young Love"    PERFORMER "Rival Sons"    INDEX 01 00:00:00FILE "03 Pressure and Time.wav" WAVE  TRACK 03 AUDIO    TITLE "Pressure and Time"    PERFORMER "Rival Sons"    INDEX 01 00:00:00FILE "04 Only One.wav" WAVE  TRACK 04 AUDIO    TITLE "Only One"    PERFORMER "Rival Sons"    INDEX 01 00:00:00  TRACK 05 AUDIO    TITLE "Get Me"    PERFORMER "Rival Sons"    INDEX 00 03:11:65FILE "05 Get Me.wav" WAVE    INDEX 01 00:00:00FILE "06 Burn Down Los Angeles.wav" WAVE  TRACK 06 AUDIO    TITLE "Burn Down Los Angeles"    PERFORMER "Rival Sons"    INDEX 01 00:00:00FILE "07 Save Me.wav" WAVE  TRACK 07 AUDIO    TITLE "Save Me"    PERFORMER "Rival Sons"    INDEX 01 00:00:00FILE "08 Gyspy Heart.wav" WAVE  TRACK 08 AUDIO    TITLE "Gyspy Heart"    PERFORMER "Rival Sons"    INDEX 01 00:00:00FILE "09 White Noise.wav" WAVE  TRACK 09 AUDIO    TITLE "White Noise"    PERFORMER "Rival Sons"    INDEX 01 00:00:00  TRACK 10 AUDIO    TITLE "Face of Light"    PERFORMER "Rival Sons"    INDEX 00 03:01:45FILE "10 Face of Light.wav" WAVE    INDEX 01 00:00:00  TRACK 11 AUDIO    TITLE "Company Man (Bonus Track)"    PERFORMER "Rival Sons"    INDEX 00 04:27:17FILE "11 Company Man (Bonus Track).wav" WAVE    INDEX 01 00:00:00  TRACK 12 AUDIO    TITLE "Life For This Road (Bonus Track)"    PERFORMER "Rival Sons"    INDEX 00 03:09:25FILE "12 Life For This Road (Bonus Track).wav" WAVE    INDEX 01 00:00:00

Лог проверки качества

-----------------------
DON'T MODIFY THIS FILE
-----------------------
PERFORMER: auCDtect Task Manager, ver. 1.6.0 RC1 build 1.6.0.1Copyright (c) 2008-2010 y-soft. All rights reservedhttp://y-soft.org
ANALYZER: auCDtect: CD records authenticity detector, version 0.8.2Copyright (c) 2004 Oleg Berngardt. All rights reserved.Copyright (c) 2004 Alexander Djourik. All rights reserved.
FILE: 12 Life For This Road (Bonus Track).flac Size: 25871728 Hash: 635720469D5460D84C74964A2157FEBD Accuracy: -m0 Conclusion: CDDA 100% Signature: 3BA46BD497F36A92D3343784021B854AFDF98201FILE: 11 Company Man (Bonus Track).flac Size: 23175578 Hash: B1D0EDBA84AC9814085C55D5C064DEF1 Accuracy: -m0 Conclusion: CDDA 100% Signature: C94A63FB5D8CBA3B81F04A270086F100BB6DE3E7FILE: 10 Face of Light.flac Size: 29899786 Hash: 6AA81D495EC6757B32E70A5669AA7E81 Accuracy: -m0 Conclusion: CDDA 100% Signature: 238F70E01B21AE45DC31675F9F148682C655F032FILE: 09 White Noise.flac Size: 23068444 Hash: 685C1544340529A9DA7370D6C6527786 Accuracy: -m0 Conclusion: CDDA 100% Signature: 9C2E9EEE741BDEDEE1E1CC9DA42BA76E10B3C56AFILE: 08 Gyspy Heart.flac Size: 25600008 Hash: 4EE0E15E6B00068E13FB789833DA959D Accuracy: -m0 Conclusion: CDDA 100% Signature: E5FCA9973179FA3907E51D0E9385903961D26BF7FILE: 07 Save Me.flac Size: 19334616 Hash: A38473457FB36432E7DE2F4DD6EBF6F5 Accuracy: -m0 Conclusion: CDDA 100% Signature: 701E2CEBB7840F065B859211B51A62801E645943FILE: 06 Burn Down Los Angeles.flac Size: 18153514 Hash: A5FEE42D643F9A62C5E60FEB56606D74 Accuracy: -m0 Conclusion: CDDA 100% Signature: 6D986C922551A245A7F473874F1C682E07C15B91FILE: 05 Get Me.flac Size: 18224219 Hash: EFFCC5BBC4073E24845A02F8120A97BC Accuracy: -m0 Conclusion: CDDA 100% Signature: 3F1C279F5AAA26385644EB19EBFA1797F6BFB617FILE: 04 Only One.flac Size: 21128167 Hash: A2D09753E26BE04347A74FFB875382B5 Accuracy: -m0 Conclusion: CDDA 100% Signature: A08A1A0FFAEE500112D6B8A9C7AB7CB03CDC920CFILE: 03 Pressure and Time.flac Size: 25831813 Hash: 30823BDB67400FF8030356C7AD70CC22 Accuracy: -m0 Conclusion: CDDA 100% Signature: 0D26EDC81442341E597C56A5A6115BA2A0D3E02CFILE: 02 Young Love.flac Size: 21759355 Hash: 833C340A14EA6BB3AF84309CD6E75C35 Accuracy: -m0 Conclusion: CDDA 100% Signature: E27B6D189AFE829DF8392954A0DB898AFC03D98DFILE: 01 All Over The Road.flac Size: 22124042 Hash: 855AFA15614025BC8367F13F1DB71C29 Accuracy: -m0 Conclusion: CDDA 100% Signature: E84CF6B3E5E763DFFEEAB2ECEDD0C22BF1E73043

Лог DRM

foobar2000 1.2.9 / Dynamic Range Meter 1.1.1log date: 2019-03-16 19:40:15
--------------------------------------------------------------------------------Analyzed: Rival Sons / Pressue and Time - Redux--------------------------------------------------------------------------------
DR Peak RMS Duration Track--------------------------------------------------------------------------------DR5 -0.04 dB -5.89 dB 2:54 01-All Over The RoadDR6 -0.04 dB -6.83 dB 3:00 02-Young LoveDR6 -0.04 dB -7.03 dB 3:19 03-Pressue and TimeDR6 -0.04 dB -8.03 dB 3:14 04-Only OneDR5 -0.10 dB -6.46 dB 2:24 05-Get MeDR5 -0.10 dB -6.20 dB 2:29 06-Burn Down Los AngelesDR6 -0.04 dB -7.16 dB 2:33 07-Save MeDR6 -0.04 dB -7.08 dB 3:29 08-Gypsy HeartDR6 -0.04 dB -6.60 dB 3:04 09-White NoiseDR6 -0.04 dB -8.19 dB 4:32 10-Face of LightDR5 -0.04 dB -6.37 dB 3:11 11-Company Man (Bonus Track)DR6 -0.10 dB -7.05 dB 3:31 12-Life For This Road (Bonus Track)--------------------------------------------------------------------------------
Number of tracks: 12Official DR value: DR6
Samplerate: 44100 HzChannels: 2Bits per sample: 16Bitrate: 982 kbpsCodec: FLAC================================================================================

2012 | Head Down | Earache ‎(MOSH450CDD) | 56:27


Треклист:
01. Keep On Swinging (3:59)
02. Wild Animal (3:27)
03. You Want To (4:16)
04. Until The Sun Comes (2:59)
05. Run From Revelation (4:14)
06. Jordan (6:18)
07. All The Way (5:10)
08. The Heist (3:14)
09. Three Fingers (3:17)
10. Nava (2:02)
11. Manifest Destiny Pt.1 (8:20)
12. Manifest Destiny Pt.2 (4:25)
13. True (4:46)

Лог создания рипа

Exact Audio Copy V1.0 beta 3 from 29. August 2011
EAC extraction logfile from 18. January 2017, 16:40
Rival Sons / Head Down
Used drive : HL-DT-STDVD+-RW GU90N Adapter: 0 ID: 0
Read mode : SecureUtilize accurate stream : YesDefeat audio cache : YesMake use of C2 pointers : No
Read offset correction : 102Overread into Lead-In and Lead-Out : NoFill up missing offset samples with silence : YesDelete leading and trailing silent blocks : NoNull samples used in CRC calculations : YesUsed interface : Native Win32 interface for Win NT & 2000Gap handling : Appended to previous track
Used output format : User Defined EncoderSelected bitrate : 1024 kBit/sQuality : HighAdd ID3 tag : NoCommand line compressor : C:\Program Files (x86)\Exact Audio Copy\Flac\flac.exeAdditional command line options : -8 -V -T "ARTIST=%artist%" -T "TITLE=%title%" -T "ALBUM=%albumtitle%" -T "DATE=%year%" -T "TRACKNUMBER=%tracknr%" -T "GENRE=%genre%" -T "PERFORMER=%albuminterpret%" -T "COMPOSER=%composer%" %haslyrics%--tag-from-file=LYRICS="%lyricsfile%"%haslyrics% -T "ALBUMARTIST=%albumartist%" -T "DISCNUMBER=%cdnumber%" -T "TOTALDISCS=%totalcds%" -T "TOTALTRACKS=%numtracks%" -T "COMMENT=%comment%" %source% -o %dest%
TOC of the extracted CD
Track | Start | Length | Start sector | End sector --------------------------------------------------------- 1 | 0:00.00 | 3:59.31 | 0 | 17955 2 | 3:59.31 | 3:27.15 | 17956 | 33495 3 | 7:26.46 | 4:15.53 | 33496 | 52673 4 | 11:42.24 | 2:58.66 | 52674 | 66089 5 | 14:41.15 | 4:14.12 | 66090 | 85151 6 | 18:55.27 | 6:18.16 | 85152 | 113517 7 | 25:13.43 | 5:10.21 | 113518 | 136788 8 | 30:23.64 | 3:13.54 | 136789 | 151317 9 | 33:37.43 | 3:17.00 | 151318 | 166092 10 | 36:54.43 | 2:01.52 | 166093 | 175219 11 | 38:56.20 | 8:20.01 | 175220 | 212720 12 | 47:16.21 | 4:24.38 | 212721 | 232558 13 | 51:40.59 | 4:45.72 | 232559 | 254005
Track 1
Filename C:\EAC\01 - Keep On Swinging.wav
Pre-gap length 0:00:02.00
Peak level 97.1 % Extraction speed 1.3 X Track quality 100.0 % Test CRC 0CD42AED Copy CRC 0CD42AED Accurately ripped (confidence 6) [672FFC8A] (AR v2) Copy OK
Track 2
Filename C:\EAC\02 - Wild Animal.wav
Peak level 97.2 % Extraction speed 1.4 X Track quality 100.0 % Test CRC F4682B76 Copy CRC F4682B76 Accurately ripped (confidence 6) [B00F44A4] (AR v2) Copy OK
Track 3
Filename C:\EAC\03 - You Want To.wav
Peak level 94.9 % Extraction speed 1.6 X Track quality 100.0 % Test CRC CE378DD1 Copy CRC CE378DD1 Accurately ripped (confidence 6) [ACB66A71] (AR v2) Copy OK
Track 4
Filename C:\EAC\04 - Until The Sun Comes.wav
Peak level 97.1 % Extraction speed 1.6 X Track quality 100.0 % Test CRC 37EC48EA Copy CRC 37EC48EA Accurately ripped (confidence 6) [019209DD] (AR v2) Copy OK
Track 5
Filename C:\EAC\05 - Run From Revelation.wav
Pre-gap length 0:00:00.86
Peak level 97.1 % Extraction speed 1.8 X Track quality 100.0 % Test CRC 0940A05A Copy CRC 0940A05A Accurately ripped (confidence 6) [58943415] (AR v2) Copy OK
Track 6
Filename C:\EAC\06 - Jordan.wav
Pre-gap length 0:00:01.30
Peak level 97.1 % Extraction speed 2.0 X Track quality 100.0 % Test CRC 4649D079 Copy CRC 4649D079 Accurately ripped (confidence 6) [E7369C58] (AR v2) Copy OK
Track 7
Filename C:\EAC\07 - All The Way.wav
Peak level 97.1 % Extraction speed 2.1 X Track quality 100.0 % Test CRC 316D7E18 Copy CRC 316D7E18 Accurately ripped (confidence 6) [1ED165F5] (AR v2) Copy OK
Track 8
Filename C:\EAC\08 - The Heist.wav
Peak level 97.7 % Extraction speed 2.0 X Track quality 100.0 % Test CRC 76011F35 Copy CRC 76011F35 Accurately ripped (confidence 6) [93BC4954] (AR v2) Copy OK
Track 9
Filename C:\EAC\09 - Three Fingers.wav
Peak level 100.0 % Extraction speed 2.2 X Track quality 100.0 % Test CRC C950ABA5 Copy CRC C950ABA5 Accurately ripped (confidence 6) [F40A1FFB] (AR v2) Copy OK
Track 10
Filename C:\EAC\10 - Nava.wav
Pre-gap length 0:00:03.02
Peak level 87.5 % Extraction speed 1.9 X Track quality 100.0 % Test CRC 9938C057 Copy CRC 9938C057 Accurately ripped (confidence 6) [D0064B24] (AR v2) Copy OK
Track 11
Filename C:\EAC\11 - Manifest Destiny Pt.1.wav
Pre-gap length 0:00:01.18
Peak level 94.9 % Extraction speed 2.6 X Track quality 100.0 % Test CRC 9C1D4318 Copy CRC 9C1D4318 Accurately ripped (confidence 6) [1B6669E0] (AR v2) Copy OK
Track 12
Filename C:\EAC\12 - Manifest Destiny Pt.2.wav
Pre-gap length 0:00:03.12
Peak level 94.9 % Extraction speed 2.5 X Track quality 100.0 % Test CRC FBA8DECE Copy CRC FBA8DECE Accurately ripped (confidence 6) [C4996DFA] (AR v2) Copy OK
Track 13
Filename C:\EAC\13 - True.wav
Peak level 93.1 % Extraction speed 2.6 X Track quality 100.0 % Test CRC 3D40CB3D Copy CRC 3D40CB3D Accurately ripped (confidence 6) [35A63A10] (AR v2) Copy OK
All tracks accurately ripped
No errors occurred
End of status report
---- CUETools DB Plugin V2.1.3
[CTDB TOCID: PdLRyc8SjGZxLVV4maVGmgrpB4c-] found, Submit result: PdLRyc8SjGZxLVV4maVGmgrpB4c- has been confirmed[42840e8f] (7/7) Accurately ripped
==== Log checksum 6013928FB27B55764AD11DCD8CAEDED9470DB58727F78F856F17DEC9C824D028 ====

Содержание индексной карты (.CUE)

REM GENRE BluesREM DATE 2012REM DISCID A10D3A0DREM COMMENT "ExactAudioCopy v1.0b3"PERFORMER "Rival Sons"TITLE "Head Down"FILE "01 - Keep On Swinging.wav" WAVE  TRACK 01 AUDIO    TITLE "Keep On Swinging"    PERFORMER "Rival Sons"    ISRC GBBPB1201568    INDEX 01 00:00:00FILE "02 - Wild Animal.wav" WAVE  TRACK 02 AUDIO    TITLE "Wild Animal"    PERFORMER "Rival Sons"    ISRC GBBPB1201568    INDEX 01 00:00:00FILE "03 - You Want To.wav" WAVE  TRACK 03 AUDIO    TITLE "You Want To"    PERFORMER "Rival Sons"    ISRC GBBPB1201570    INDEX 01 00:00:00FILE "04 - Until The Sun Comes.wav" WAVE  TRACK 04 AUDIO    TITLE "Until The Sun Comes"    PERFORMER "Rival Sons"    ISRC GBBPB1201571    INDEX 01 00:00:00  TRACK 05 AUDIO    TITLE "Run From Revelation"    PERFORMER "Rival Sons"    ISRC GBBPB1201572    INDEX 00 02:58:01FILE "05 - Run From Revelation.wav" WAVE    INDEX 01 00:00:00  TRACK 06 AUDIO    TITLE "Jordan"    PERFORMER "Rival Sons"    ISRC GBBPB1201573    INDEX 00 04:12:64FILE "06 - Jordan.wav" WAVE    INDEX 01 00:00:00FILE "07 - All The Way.wav" WAVE  TRACK 07 AUDIO    TITLE "All The Way"    PERFORMER "Rival Sons"    ISRC GBBPB1201574    INDEX 01 00:00:00FILE "08 - The Heist.wav" WAVE  TRACK 08 AUDIO    TITLE "The Heist"    PERFORMER "Rival Sons"    ISRC GBBPB1201575    INDEX 01 00:00:00FILE "09 - Three Fingers.wav" WAVE  TRACK 09 AUDIO    TITLE "Three Fingers"    PERFORMER "Rival Sons"    ISRC GBBPB1201576    INDEX 01 00:00:00  TRACK 10 AUDIO    TITLE "Nava"    PERFORMER "Rival Sons"    ISRC GBBPB1201577    INDEX 00 03:13:73FILE "10 - Nava.wav" WAVE    INDEX 01 00:00:00  TRACK 11 AUDIO    TITLE "Manifest Destiny Pt.1"    PERFORMER "Rival Sons"    ISRC GBBPB1201578    INDEX 00 02:00:38FILE "11 - Manifest Destiny Pt.1.wav" WAVE    INDEX 01 00:00:00  TRACK 12 AUDIO    TITLE "Manifest Destiny Pt.2"    PERFORMER "Rival Sons"    ISRC GBBPB1201579    INDEX 00 08:16:67FILE "12 - Manifest Destiny Pt.2.wav" WAVE    INDEX 01 00:00:00FILE "13 - True.wav" WAVE  TRACK 13 AUDIO    TITLE "True"    PERFORMER "Rival Sons"    ISRC GBBPB1201580    INDEX 01 00:00:00

Лог проверки качества

-----------------------
DON'T MODIFY THIS FILE
-----------------------
PERFORMER: auCDtect Task Manager, ver. 1.6.0 RC1 build 1.6.0.1Copyright (c) 2008-2010 y-soft. All rights reservedhttp://y-soft.org
ANALYZER: auCDtect: CD records authenticity detector, version 0.8.2Copyright (c) 2004 Oleg Berngardt. All rights reserved.Copyright (c) 2004 Alexander Djourik. All rights reserved.
FILE: 13 - True.flac Size: 26680956 Hash: E85755314942E1F3D0C66A1F5A35FC36 Accuracy: -m0 Conclusion: CDDA 100% Signature: 6AB47DDFB175402D6C2E229BE397AA32C198C62BFILE: 12 - Manifest Destiny Pt.2.flac Size: 30085201 Hash: E94457C885FB214E31D1FD84F9FD223D Accuracy: -m0 Conclusion: CDDA 100% Signature: 6C274DB687FD9648F3FAEE80E23039094BDFB5B0FILE: 11 - Manifest Destiny Pt.1.flac Size: 57197709 Hash: 0FFBD2E66248A553451E73F652201C6F Accuracy: -m0 Conclusion: CDDA 99% Signature: 29C124B2665F52A6302022EBF3A0554DD7BD9E7FFILE: 10 - Nava.flac Size: 10921546 Hash: FCF3643E067D6E5312ABCDDEAB2351BC Accuracy: -m0 Conclusion: CDDA 100% Signature: 8022E58B52223DE0766208BD9D5D0FF99719E186FILE: 09 - Three Fingers.flac Size: 22422017 Hash: EFB89F5E9EB743EAC401C80EA1506277 Accuracy: -m0 Conclusion: CDDA 100% Signature: 5E689009B1BCA32636A0DE3F0826F36617AAD58DFILE: 08 - The Heist.flac Size: 22255619 Hash: 1CAB4F48FA565F9553818E788ECDB487 Accuracy: -m0 Conclusion: CDDA 100% Signature: 4D935CA86560438B901D24B2E618683023038E0BFILE: 07 - All The Way.flac Size: 35111798 Hash: F2E830B2002857BF607C2D7F9E5880FE Accuracy: -m0 Conclusion: CDDA 100% Signature: AB29F4A004FAA9594C81E80959FA8E4A0B8748A3FILE: 06 - Jordan.flac Size: 39564607 Hash: 24DE93CBDCE5D0FC778E98AB344E988C Accuracy: -m0 Conclusion: CDDA 100% Signature: B66B97DAA4F98ECBEFFE25AD433CBA0FE1A9496FFILE: 05 - Run From Revelation.flac Size: 28565664 Hash: 3AAB8E6886646909B3CF1D4A7276917E Accuracy: -m0 Conclusion: CDDA 100% Signature: D7814420C09E4B17C8695B71EE04E9CAE8EDE352FILE: 04 - Until The Sun Comes.flac Size: 22888557 Hash: A046EAD7E7B309F4D4C9F18F08DFB175 Accuracy: -m0 Conclusion: CDDA 100% Signature: 659B3304734C5D215BD4AA9A02D354CEDB21A66AFILE: 03 - You Want To.flac Size: 30030044 Hash: F004A2685A270CD5399AED3E6F3BE13F Accuracy: -m0 Conclusion: CDDA 100% Signature: 85123A057AE49FCABB34635BED1176A21538F4B0FILE: 02 - Wild Animal.flac Size: 25040899 Hash: EFE1903EF5486D9C2456F4054E183901 Accuracy: -m0 Conclusion: CDDA 100% Signature: C7910F2FD4F5F49110C67F16206E2E8C901E04CAFILE: 01 - Keep On Swinging.flac Size: 29243102 Hash: 28EF6FCA2AC67883EB127B5CFCFBABD5 Accuracy: -m0 Conclusion: CDDA 100% Signature: 95AAAF192370F6D41B7651D68E014EF808AE6BE6

Лог DRM

foobar2000 1.2.9 / Dynamic Range Meter 1.1.1log date: 2019-03-16 19:16:38
--------------------------------------------------------------------------------Analyzed: Rival Sons / Head Down--------------------------------------------------------------------------------
DR Peak RMS Duration Track--------------------------------------------------------------------------------DR6 -0.25 dB -7.52 dB 3:59 01-Keep On SwingingDR6 -0.25 dB -7.17 dB 3:27 02-Wild AnimalDR6 -0.45 dB -7.54 dB 4:16 03-You Want ToDR6 -0.25 dB -7.38 dB 2:59 04-Until The Sun ComesDR7 -0.25 dB -8.60 dB 4:14 05-Run From RevelationDR7 -0.25 dB -9.77 dB 6:18 06-JordanDR6 -0.25 dB -7.62 dB 5:10 07-All The WayDR6 -0.20 dB -8.12 dB 3:14 08-The HeistDR7 0.00 dB -8.09 dB 3:17 09-Three FingersDR10 -1.15 dB -13.59 dB 2:02 10-NavaDR6 -0.45 dB -8.21 dB 8:20 11-Manifest Destiny Pt.1DR6 -0.45 dB -7.91 dB 4:25 12-Manifest Destiny Pt.2DR9 -0.62 dB -13.23 dB 4:46 13-True--------------------------------------------------------------------------------
Number of tracks: 13Official DR value: DR7
Samplerate: 44100 HzChannels: 2Bits per sample: 16Bitrate: 746 kbpsCodec: FLAC================================================================================

If you like the topic, please click share to help develop our site.

To download the file disable ad blocking, and reload the page.

disable adblock How to disable ad blocking?

Download by magnet link 650 MB Download Torrent

Login using:

Similar topics



   
Current time is: 20-Jun 18:44 :: All times are UTC + 3