Ragadozók(2012) Жанр: Hard Rock
Носитель: CD
Страна-производитель диска (релиза): Hungary
Год издания: 2012
Издатель (лейбл): HMRCD
Номер по каталогу: 111
Страна исполнителя (группы): Hungary
Аудиокодек: FLAC (*.flac)
Тип рипа: tracks+.cue
Битрейт аудио: lossless
Продолжительность: 00:43:49
Источник: Naftamusic
Наличие сканов в содержимом раздачи: да
Корректность рипа: В оригинале не было применено сжатие при конвертировании во Флак (FLAC Level 0). Для приведения в соответствие правилам пережато во FLAC Level 5 с сохранением тэгов


01 - Miért jó, ami nem jó? (00:03:19)
02 - Ragadozók (00:04:41)
03 - Csenddel üzenek (00:03:05)
04 - Kisfiú (00:02:37)
05 - Szóljon a rock! (00:03:19)
06 - Itthon vagy otthon (00:04:15)
07 - Álmaim asszonya (00:03:46)
08 - Te légy a fény (00:03:29)
09 - Zöld szemű lány (00:03:19)
10 - Hajsza (00:02:25)
11 - Be The Light (bonus) (00:04:53)
12 - Unbelievable You (bonus) (00:02:15)
13 - Stagefire (bonus) (00:02:24)

Лог создания рипа

Exact Audio Copy V1.3 from 2. September 2016
EAC extraction logfile from 16. March 2019, 8:36
Lord / Ragadozók
Used drive : PLEXTOR DVDR PX-L890SA Adapter: 1 ID: 1
Read mode : SecureUtilize accurate stream : YesDefeat audio cache : YesMake use of C2 pointers : No
Read offset correction : 6Overread into Lead-In and Lead-Out : NoFill up missing offset samples with silence : YesDelete leading and trailing silent blocks : NoNull samples used in CRC calculations : YesUsed interface : Native Win32 interface for Win NT & 2000Gap handling : Appended to previous track
Used output format : User Defined EncoderSelected bitrate : 1024 kBit/sQuality : HighAdd ID3 tag : NoCommand line compressor : C:\Program Files (x86)\Exact Audio Copy\Flac\flac.exeAdditional command line options : -0 -V -T "ARTIST=%artist%" -T "TITLE=%title%" -T "ALBUM=%albumtitle%" -T "DATE=%year%" -T "TRACKNUMBER=%tracknr%" -T "TOTALTRACKS=%numtracks%" -T "GENRE=%genre%" -T "COMMENT=Naftamusic Release!" %source%
TOC of the extracted CD
Track | Start | Length | Start sector | End sector --------------------------------------------------------- 1 | 0:00.00 | 3:19.10 | 0 | 14934 2 | 3:19.10 | 4:41.10 | 14935 | 36019 3 | 8:00.20 | 3:04.71 | 36020 | 49890 4 | 11:05.16 | 2:37.24 | 49891 | 61689 5 | 13:42.40 | 3:19.33 | 61690 | 76647 6 | 17:01.73 | 4:15.37 | 76648 | 95809 7 | 21:17.35 | 3:45.67 | 95810 | 112751 8 | 25:03.27 | 3:29.36 | 112752 | 128462 9 | 28:32.63 | 3:18.54 | 128463 | 143366 10 | 31:51.42 | 2:25.14 | 143367 | 154255 11 | 34:16.56 | 4:52.46 | 154256 | 176201 12 | 39:09.27 | 2:15.22 | 176202 | 186348 13 | 41:24.49 | 2:24.30 | 186349 | 197178
Track 1
Filename D:\Nafta Releases\Lord - Ragadozók (1989, 2012) [FLAC] - Naftamusic\01 - Miért jó, ami nem jó.wav
Pre-gap length 0:00:02.00
Peak level 97.7 % Extraction speed 3.2 X Track quality 100.0 % Test CRC 59E2BBE9 Copy CRC 59E2BBE9 Accurately ripped (confidence 1) [B77BCBFE] (AR v2) Copy OK
Track 2
Filename D:\Nafta Releases\Lord - Ragadozók (1989, 2012) [FLAC] - Naftamusic\02 - Ragadozók.wav
Pre-gap length 0:00:01.54
Peak level 97.7 % Extraction speed 3.8 X Track quality 100.0 % Test CRC 2F7FA1B0 Copy CRC 2F7FA1B0 Accurately ripped (confidence 1) [0C6B970D] (AR v2) Copy OK
Track 3
Filename D:\Nafta Releases\Lord - Ragadozók (1989, 2012) [FLAC] - Naftamusic\03 - Csenddel üzenek.wav
Pre-gap length 0:00:01.34
Peak level 97.7 % Extraction speed 3.0 X Track quality 99.9 % Test CRC F4676915 Copy CRC F4676915 Accurately ripped (confidence 1) [1038C3B9] (AR v2) Copy OK
Track 4
Filename D:\Nafta Releases\Lord - Ragadozók (1989, 2012) [FLAC] - Naftamusic\04 - Kisfiú.wav
Pre-gap length 0:00:01.65
Peak level 97.7 % Extraction speed 4.0 X Track quality 100.0 % Test CRC B0A5A4D4 Copy CRC B0A5A4D4 Accurately ripped (confidence 1) [C7B9B770] (AR v2) Copy OK
Track 5
Filename D:\Nafta Releases\Lord - Ragadozók (1989, 2012) [FLAC] - Naftamusic\05 - Szóljon a rock!.wav
Pre-gap length 0:00:01.70
Peak level 97.7 % Extraction speed 4.4 X Track quality 100.0 % Test CRC A5F20D50 Copy CRC A5F20D50 Accurately ripped (confidence 1) [4DBBEDF7] (AR v2) Copy OK
Track 6
Filename D:\Nafta Releases\Lord - Ragadozók (1989, 2012) [FLAC] - Naftamusic\06 - Itthon vagy otthon.wav
Pre-gap length 0:00:01.59
Peak level 97.7 % Extraction speed 4.8 X Track quality 100.0 % Test CRC 09BF67AC Copy CRC 09BF67AC Accurately ripped (confidence 1) [A1F658AE] (AR v2) Copy OK
Track 7
Filename D:\Nafta Releases\Lord - Ragadozók (1989, 2012) [FLAC] - Naftamusic\07 - Álmaim asszonya.wav
Pre-gap length 0:00:01.59
Peak level 97.7 % Extraction speed 5.0 X Track quality 100.0 % Test CRC 5787CB7C Copy CRC 5787CB7C Accurately ripped (confidence 1) [16650708] (AR v2) Copy OK
Track 8
Filename D:\Nafta Releases\Lord - Ragadozók (1989, 2012) [FLAC] - Naftamusic\08 - Te légy a fény.wav
Pre-gap length 0:00:01.60
Peak level 97.6 % Extraction speed 4.0 X Track quality 99.9 % Test CRC 61932968 Copy CRC 61932968 Accurately ripped (confidence 1) [C2889B2F] (AR v2) Copy OK
Track 9
Filename D:\Nafta Releases\Lord - Ragadozók (1989, 2012) [FLAC] - Naftamusic\09 - Zöld szemű lány.wav
Pre-gap length 0:00:01.61
Peak level 97.7 % Extraction speed 5.4 X Track quality 100.0 % Test CRC 1E2951B7 Copy CRC 1E2951B7 Accurately ripped (confidence 1) [CC48B226] (AR v2) Copy OK
Track 10
Filename D:\Nafta Releases\Lord - Ragadozók (1989, 2012) [FLAC] - Naftamusic\10 - Hajsza.wav
Pre-gap length 0:00:01.74
Peak level 97.7 % Extraction speed 5.2 X Track quality 100.0 % Test CRC 8636DA31 Copy CRC 8636DA31 Accurately ripped (confidence 1) [384D8E05] (AR v2) Copy OK
Track 11
Filename D:\Nafta Releases\Lord - Ragadozók (1989, 2012) [FLAC] - Naftamusic\11 - Be The Light (bonus).wav
Pre-gap length 0:00:01.57
Peak level 91.3 % Extraction speed 6.0 X Track quality 100.0 % Test CRC C6BCB49F Copy CRC C6BCB49F Accurately ripped (confidence 1) [34FA3B5B] (AR v2) Copy OK
Track 12
Filename D:\Nafta Releases\Lord - Ragadozók (1989, 2012) [FLAC] - Naftamusic\12 - Unbelievable You (bonus).wav
Pre-gap length 0:00:01.54
Peak level 93.5 % Extraction speed 5.5 X Track quality 100.0 % Test CRC 7061A60A Copy CRC 7061A60A Accurately ripped (confidence 1) [78CFAF49] (AR v2) Copy OK
Track 13
Filename D:\Nafta Releases\Lord - Ragadozók (1989, 2012) [FLAC] - Naftamusic\13 - Stagefire (bonus).wav
Pre-gap length 0:00:01.59
Peak level 97.7 % Extraction speed 4.1 X Track quality 99.9 % Test CRC 8B655CD6 Copy CRC 8B655CD6 Accurately ripped (confidence 1) [B4B77635] (AR v2) Copy OK
All tracks accurately ripped
No errors occurred
End of status report
==== Log checksum 71D50FC2AF5D93F644FA4172F6C56F1CBF4CC93E7BFC13313D6D6DB9DDBD5F01 ====

Содержание индексной карты (.CUE)

REM GENRE rockREM DATE 1989REM DISCID A10A450DREM COMMENT "ExactAudioCopy v1.3"FILE "01 - Miért jó, ami nem jó.wav" WAVE  TRACK 01 AUDIO    INDEX 01 00:00:00  TRACK 02 AUDIO    INDEX 00 03:17:31FILE "02 - Ragadozók.wav" WAVE    INDEX 01 00:00:00  TRACK 03 AUDIO    INDEX 00 04:39:51FILE "03 - Csenddel üzenek.wav" WAVE    INDEX 01 00:00:00  TRACK 04 AUDIO    INDEX 00 03:03:06FILE "04 - Kisfiú.wav" WAVE    INDEX 01 00:00:00  TRACK 05 AUDIO    INDEX 00 02:35:29FILE "05 - Szóljon a rock!.wav" WAVE    INDEX 01 00:00:00  TRACK 06 AUDIO    INDEX 00 03:17:49FILE "06 - Itthon vagy otthon.wav" WAVE    INDEX 01 00:00:00  TRACK 07 AUDIO    INDEX 00 04:13:53FILE "07 - Álmaim asszonya.wav" WAVE    INDEX 01 00:00:00  TRACK 08 AUDIO    INDEX 00 03:44:07FILE "08 - Te légy a fény.wav" WAVE    INDEX 01 00:00:00  TRACK 09 AUDIO    INDEX 00 03:27:50FILE "09 - Zöld szemű lány.wav" WAVE    INDEX 01 00:00:00  TRACK 10 AUDIO    INDEX 00 03:16:55FILE "10 - Hajsza.wav" WAVE    INDEX 01 00:00:00  TRACK 11 AUDIO    INDEX 00 02:23:32FILE "11 - Be The Light (bonus).wav" WAVE    INDEX 01 00:00:00  TRACK 12 AUDIO    INDEX 00 04:50:67FILE "12 - Unbelievable You (bonus).wav" WAVE    INDEX 01 00:00:00  TRACK 13 AUDIO    INDEX 00 02:13:38FILE "13 - Stagefire (bonus).wav" WAVE    INDEX 01 00:00:00

Об исполнителе (группе)

Vida Ferenc - basszusgitár
Pohl Mihály - ének
Gidófalvy Attila - billentyűs hangszerek
Erős Attila - szólógitár
Hollósi László - dob

If you like the topic, please click share to help develop our site.

To download the file disable ad blocking, and reload the page.

disable adblock How to disable ad blocking?

Download by magnet link 362 MB Download Torrent

Login using:

Similar topics



   
Current time is: 20-Jun 18:01 :: All times are UTC + 3