Szemedben a csillagok(2012) Жанр: Hard Rock
Носитель: CD
Страна-производитель диска (релиза): Hungary
Год издания: 2012
Издатель (лейбл): HMRCD
Номер по каталогу: 110
Страна исполнителя (группы): Hungary
Аудиокодек: FLAC (*.flac)
Тип рипа: tracks+.cue
Битрейт аудио: lossless
Продолжительность: 00:48:21
Источник: Naftamusic
Наличие сканов в содержимом раздачи: да

Корректность рипа: В оригинале не было применено сжатие при конвертировании во Флак (FLAC Level 0). Для приведения в соответствие правилам пережато во FLAC Level 5 с сохранением тэгов

01 - Álmodom (00:03:53)
02 - Éjszakák (00:02:57)
03 - Fázom a szélben (00:03:14)
04 - Virágdal (a XXI. századból) (00:03:00)
05 - Amikor a köd bezár (00:03:01)
06 - Érezzél engem (00:03:35)
07 - Síri csend az éjjel (00:03:24)
08 - Tombolhat a szél (00:03:06)
09 - Szemedben a csillagok (00:03:53)
10 - Tiesztelet a mestereknek (00:02:04)
11 - Vándor (00:06:22)
12 - Akarom (00:02:53)
13 - Tépett álmok (Csakis a lényeg) (00:03:50)
14 - Holló-róka (00:03:11)

Лог создания рипа

Exact Audio Copy V1.0 beta 3 from 29. August 2011
EAC extraction logfile from 1. October 2012, 21:24
Lord / Szemedben a csillagok
Used drive : TSSTcorpCDDVDW SN-208BB Adapter: 0 ID: 1
Read mode : SecureUtilize accurate stream : YesDefeat audio cache : YesMake use of C2 pointers : No
Read offset correction : 6Overread into Lead-In and Lead-Out : NoFill up missing offset samples with silence : YesDelete leading and trailing silent blocks : NoNull samples used in CRC calculations : YesUsed interface : Native Win32 interface for Win NT & 2000Gap handling : Appended to previous track
Used output format : User Defined EncoderSelected bitrate : 1024 kBit/sQuality : HighAdd ID3 tag : NoCommand line compressor : C:\Program Files (x86)\Exact Audio Copy\Flac\flac.exeAdditional command line options : -0 -V -T "ARTIST=%artist%" -T "TITLE=%title%" -T "ALBUM=%albumtitle%" -T "DATE=%year%" -T "TRACKNUMBER=%tracknr%" -T "TOTALTRACKS=%numtracks%" -T "GENRE=%genre%" -T "COMMENT=Naftamusic Release!" %source%
TOC of the extracted CD
Track | Start | Length | Start sector | End sector --------------------------------------------------------- 1 | 0:00.00 | 3:52.72 | 0 | 17471 2 | 3:52.72 | 2:56.42 | 17472 | 30713 3 | 6:49.39 | 3:13.71 | 30714 | 45259 4 | 10:03.35 | 2:59.38 | 45260 | 58722 5 | 13:02.73 | 3:00.58 | 58723 | 72280 6 | 16:03.56 | 3:34.58 | 72281 | 88388 7 | 19:38.39 | 3:23.70 | 88389 | 103683 8 | 23:02.34 | 3:06.18 | 103684 | 117651 9 | 26:08.52 | 3:53.08 | 117652 | 135134 10 | 30:01.60 | 2:03.74 | 135135 | 144433 11 | 32:05.59 | 6:21.44 | 144434 | 173052 12 | 38:27.28 | 2:52.58 | 173053 | 186010 13 | 41:20.11 | 3:49.53 | 186011 | 203238 14 | 45:09.64 | 3:11.06 | 203239 | 217569
Track 1
Filename C:\FLAC\Lord-Szemedben a csillagok(2012)[FLAC]-Naftamusic\01 - Álmodom.wav
Pre-gap length 0:00:02.00
Peak level 97.7 % Extraction speed 1.7 X Track quality 100.0 % Test CRC C251CDAF Copy CRC C251CDAF Track not present in AccurateRip database Copy OK
Track 2
Filename C:\FLAC\Lord-Szemedben a csillagok(2012)[FLAC]-Naftamusic\02 - Éjszakák.wav
Pre-gap length 0:00:01.68
Peak level 97.7 % Extraction speed 1.8 X Track quality 100.0 % Test CRC DE75A6B1 Copy CRC DE75A6B1 Track not present in AccurateRip database Copy OK
Track 3
Filename C:\FLAC\Lord-Szemedben a csillagok(2012)[FLAC]-Naftamusic\03 - Fázom a szélben.wav
Pre-gap length 0:00:01.64
Peak level 97.7 % Extraction speed 1.9 X Track quality 100.0 % Test CRC DB0945A1 Copy CRC DB0945A1 Track not present in AccurateRip database Copy OK
Track 4
Filename C:\FLAC\Lord-Szemedben a csillagok(2012)[FLAC]-Naftamusic\04 - Virágdal (a XXI. századból).wav
Pre-gap length 0:00:01.65
Peak level 97.7 % Extraction speed 2.0 X Track quality 100.0 % Test CRC 2E6B261D Copy CRC 2E6B261D Track not present in AccurateRip database Copy OK
Track 5
Filename C:\FLAC\Lord-Szemedben a csillagok(2012)[FLAC]-Naftamusic\05 - Amikor a köd bezár.wav
Pre-gap length 0:00:01.63
Peak level 97.7 % Extraction speed 2.2 X Track quality 100.0 % Test CRC 75613632 Copy CRC 75613632 Track not present in AccurateRip database Copy OK
Track 6
Filename C:\FLAC\Lord-Szemedben a csillagok(2012)[FLAC]-Naftamusic\06 - Érezzél engem.wav
Pre-gap length 0:00:01.59
Peak level 97.7 % Extraction speed 2.0 X Track quality 99.9 % Test CRC 3080D11B Copy CRC 3080D11B Track not present in AccurateRip database Copy OK
Track 7
Filename C:\FLAC\Lord-Szemedben a csillagok(2012)[FLAC]-Naftamusic\07 - Síri csend az éjjel.wav
Pre-gap length 0:00:01.60
Peak level 97.7 % Extraction speed 2.5 X Track quality 100.0 % Test CRC 64573BF8 Copy CRC 64573BF8 Track not present in AccurateRip database Copy OK
Track 8
Filename C:\FLAC\Lord-Szemedben a csillagok(2012)[FLAC]-Naftamusic\08 - Tombolhat a szél.wav
Pre-gap length 0:00:01.64
Peak level 97.7 % Extraction speed 2.2 X Track quality 99.9 % Test CRC 1D2C8562 Copy CRC 1D2C8562 Track not present in AccurateRip database Copy OK
Track 9
Filename C:\FLAC\Lord-Szemedben a csillagok(2012)[FLAC]-Naftamusic\09 - Szemedben a csillagok.wav
Pre-gap length 0:00:01.61
Peak level 97.7 % Extraction speed 2.7 X Track quality 100.0 % Test CRC 0ABBCE99 Copy CRC 0ABBCE99 Track not present in AccurateRip database Copy OK
Track 10
Filename C:\FLAC\Lord-Szemedben a csillagok(2012)[FLAC]-Naftamusic\10 - Tiesztelet a mestereknek.wav
Pre-gap length 0:00:01.61
Peak level 97.7 % Extraction speed 2.5 X Track quality 100.0 % Test CRC 50506AE3 Copy CRC 50506AE3 Track not present in AccurateRip database Copy OK
Track 11
Filename C:\FLAC\Lord-Szemedben a csillagok(2012)[FLAC]-Naftamusic\11 - Vándor.wav
Pre-gap length 0:00:01.61
Peak level 97.7 % Extraction speed 3.1 X Track quality 100.0 % Test CRC 878AAF77 Copy CRC 878AAF77 Track not present in AccurateRip database Copy OK
Track 12
Filename C:\FLAC\Lord-Szemedben a csillagok(2012)[FLAC]-Naftamusic\12 - Akarom.wav
Pre-gap length 0:00:01.71
Peak level 97.7 % Extraction speed 2.9 X Track quality 100.0 % Test CRC 1C3AF54B Copy CRC 1C3AF54B Track not present in AccurateRip database Copy OK
Track 13
Filename C:\FLAC\Lord-Szemedben a csillagok(2012)[FLAC]-Naftamusic\13 - Tépett álmok (Csakis a lényeg).wav
Pre-gap length 0:00:01.59
Peak level 97.7 % Extraction speed 2.8 X Track quality 99.9 % Test CRC CCB17747 Copy CRC CCB17747 Track not present in AccurateRip database Copy OK
Track 14
Filename C:\FLAC\Lord-Szemedben a csillagok(2012)[FLAC]-Naftamusic\14 - Holló-róka.wav
Pre-gap length 0:00:02.00
Peak level 97.7 % Extraction speed 3.1 X Track quality 100.0 % Test CRC DEE3DED8 Copy CRC DEE3DED8 Track not present in AccurateRip database Copy OK
None of the tracks are present in the AccurateRip database
No errors occurred
End of status report
==== Log checksum 1103248C434727921BEB24537A75E7CA32BC4470100323DFD9D6BB613C4E215C ====

Содержание индексной карты (.CUE)

REM GENRE "Hard Rock"REM DATE 2012REM DISCID B20B540EREM COMMENT "ExactAudioCopy v1.0b3"FILE "01 - Álmodom.wav" WAVE  TRACK 01 AUDIO    INDEX 01 00:00:00  TRACK 02 AUDIO    INDEX 00 03:51:04FILE "02 - Éjszakák.wav" WAVE    INDEX 01 00:00:00  TRACK 03 AUDIO    INDEX 00 02:54:53FILE "03 - Fázom a szélben.wav" WAVE    INDEX 01 00:00:00  TRACK 04 AUDIO    INDEX 00 03:12:06FILE "04 - Virágdal (a XXI. századból).wav" WAVE    INDEX 01 00:00:00  TRACK 05 AUDIO    INDEX 00 02:57:50FILE "05 - Amikor a köd bezár.wav" WAVE    INDEX 01 00:00:00  TRACK 06 AUDIO    INDEX 00 02:58:74FILE "06 - Érezzél engem.wav" WAVE    INDEX 01 00:00:00  TRACK 07 AUDIO    INDEX 00 03:32:73FILE "07 - Síri csend az éjjel.wav" WAVE    INDEX 01 00:00:00  TRACK 08 AUDIO    INDEX 00 03:22:06FILE "08 - Tombolhat a szél.wav" WAVE    INDEX 01 00:00:00  TRACK 09 AUDIO    INDEX 00 03:04:32FILE "09 - Szemedben a csillagok.wav" WAVE    INDEX 01 00:00:00  TRACK 10 AUDIO    INDEX 00 03:51:22FILE "10 - Tiesztelet a mestereknek.wav" WAVE    INDEX 01 00:00:00  TRACK 11 AUDIO    INDEX 00 02:02:13FILE "11 - Vándor.wav" WAVE    INDEX 01 00:00:00  TRACK 12 AUDIO    INDEX 00 06:19:48FILE "12 - Akarom.wav" WAVE    INDEX 01 00:00:00  TRACK 13 AUDIO    INDEX 00 02:50:74FILE "13 - Tépett álmok (Csakis a lényeg).wav" WAVE    INDEX 01 00:00:00  TRACK 14 AUDIO    INDEX 00 03:47:53FILE "14 - Holló-róka.wav" WAVE    INDEX 01 00:00:00

Об исполнителе (группе)

Vida Ferenc - basszusgitár
Pohl Mihály - ének
Gidófalvy Attila - billentyűs hangszerek
Erős Attila - szólógitár
Hollósi László - dob

If you like the topic, please click share to help develop our site.

To download the file disable ad blocking, and reload the page.

disable adblock How to disable ad blocking?

Download by magnet link 362 MB Download Torrent

Login using:

Similar topics



   
Current time is: 20-Jun 18:15 :: All times are UTC + 3