Such A Noise - Raising The Roof - 1992
Жанр: Hard Rock, Blues
Носитель: CD
Страна-производитель диска (релиза): Belgium
Год издания: 1992
Издатель (лейбл): Columbia
Номер по каталогу: COL 472852 2
Страна исполнителя (группы): Germany
Аудиокодек: FLAC (*.flac)
Тип рипа: image+.cue
Битрейт аудио: lossless
Продолжительность: 53:41
Источник: собственная покупка
Наличие сканов в содержимом раздачи: да
Треклист:
01. Mainstreet Lady (3:54)
02. Come On (Let The Good Times Roll) (3:40)
03. Mad Dog (4:16)
04. Don't You Cry (7:03)
05. Season Ticket To The Blues (3:43)
06. Big Fat Louis (3:29)
07. Call Your Sister (3:02)
08. When Love Is Calling You (4:05)
09. Don't Give It Up (Leila) (4:42)
10. Voodoo Chile (5:57)
11. I Could Have Been Your Lover (4:31)
12. Such A Noise (3:23)
13. Such A Free Noise (1:56)

Лог создания рипа

Exact Audio Copy V1.1 from 23. June 2015
Отчёт EAC об извлечении, выполненном 16. марта 2019, 13:22
Such A Noise / Raising The Roof
Дисковод: PIONEER DVD-RW DVR-221L Adapter: 1 ID: 1
Режим чтения : ДостоверностьИспользование точного потока : ДаОтключение кэша аудио : ДаИспользование указателей C2 : Нет
Коррекция смещения при чтении : 6Способность читать области Lead-in и Lead-out : НетЗаполнение пропущенных сэмплов тишиной : ДаУдаление блоков с тишиной в начале и конце : НетПри вычислениях CRC использовались нулевые сэмплы : ДаИнтерфейс : Встроенный Win32-интерфейс для Win NT/2000
Выходной формат : Пользовательский кодировщикВыбранный битрейт : 128 kBit/sКачество : ВысокийДобавление ID3-тега : НетУтилита сжатия : C:\Program Files (x86)\Exact Audio Copy\FLAC\FLAC.EXEДополнительные параметры : -8 -V -T "Date=%year%" -T "Genre=%genre%" %source%
TOC извлечённого CD
Трек | Старт | Длительность | Начальный сектор | Конечный сектор --------------------------------------------------------------------- 1 | 0:00.32 | 3:54.73 | 32 | 17654 2 | 3:55.30 | 3:40.45 | 17655 | 34199 3 | 7:36.00 | 4:16.22 | 34200 | 53421 4 | 11:52.22 | 7:03.65 | 53422 | 85211 5 | 18:56.12 | 3:43.60 | 85212 | 101996 6 | 22:39.72 | 3:29.30 | 101997 | 117701 7 | 26:09.27 | 3:02.23 | 117702 | 131374 8 | 29:11.50 | 4:05.72 | 131375 | 149821 9 | 33:17.47 | 4:42.43 | 149822 | 171014 10 | 38:00.15 | 5:57.50 | 171015 | 197839 11 | 43:57.65 | 4:31.40 | 197840 | 218204 12 | 48:29.30 | 3:23.22 | 218205 | 233451 13 | 51:52.52 | 1:56.55 | 233452 | 242206
Характеристики диапазона извлечения и сообщения об ошибках
Выбранный диапазон
Имя файла D:\Мусор\Such A Noise - Raising The Roof - 1992.wav
Пиковый уровень 99.3 % Скорость извлечения 7.2 X Качество диапазона 100.0 % CRC теста BCDD1FF0 CRC копии BCDD1FF0 Копирование... OK
Ошибок не произошло
AccurateRip: сводка
Трек 1 отсутствует в базе данныхТрек 2 отсутствует в базе данныхТрек 3 отсутствует в базе данныхТрек 4 отсутствует в базе данныхТрек 5 отсутствует в базе данныхТрек 6 отсутствует в базе данныхТрек 7 отсутствует в базе данныхТрек 8 отсутствует в базе данныхТрек 9 отсутствует в базе данныхТрек 10 отсутствует в базе данныхТрек 11 отсутствует в базе данныхТрек 12 отсутствует в базе данныхТрек 13 отсутствует в базе данных
Ни одного трека нет в базе AccurateRip
Конец отчёта
==== Контрольная сумма отчёта E8AB2394EE4F1CCDBF359B45B8D8033C2767A02A30AB93550A6B68F6848E8E3B ====

Состав

Jean Pierre Cocco - Vocals, Bass
Alain Pire - Vocals, Guitar
Jean Pierre Froidebise - Vocals, Guitars
Rudy Lenners - Vocals, Drums

If you like the topic, please click share to help develop our site.

To download the file disable ad blocking, and reload the page.

disable adblock How to disable ad blocking?

Download by magnet link 354 MB Download Torrent

Login using:

Similar topics

(Hard Rock) Tarque - Tarque - 2018, MP3, 320 kbps
 90 MB   0 | 0   06-Oct-18 11:00   252
(Comedy Rock) Tenacious D - Post-Apocalypto - 2018, MP3, 320 kbps
 71 MB   0 | 0   02-Nov-18 11:00   86


   
Current time is: 16-Jun 00:14 :: All times are UTC + 3