The RLN - The Rise of the Phoenix- Жанр: Classic Rock
Носитель: WEB
Год издания: 2019
Издатель-лейбл: The Rln
Страна исполнителя: USA
Аудиокодек: FLAC (*.flac)
Тип рипа: tracks
Битрейт аудио: lossless
Продолжительность: 00:55:07
Источник: deezer
Наличие сканов: нет

Треклист:
01. Trapped by You (5:04)
02. The Rise of the Phoenix (6:40)
03. Back to the Wall (4:14)
04. Hypocrisy (5:14)
05. Wish It Was You (5:29)
06. Ole Jose (7:11)
07. Golden (9:25)
08. The Night Riders (6:12)
09. Out for a Cruise (5:39)

auCDtect

CUE Corrector v. 8.3.5 / b. 907 (Mar. 15, 2019)————————————————————————————————————————————————————————————————————————The RLN / The Rise of the Phoenix
Folder: The RLN - 2019 - The Rise of the Phoenix [FLAC]Audio files: 01 Trapped by You.flac [05:03.880; FLAC • 982 kbps • 16 bit \ 44100 Hz • stereo; 35.58 MB (37 310 927 B)] 02 The Rise of the Phoenix.flac [06:40.333; FLAC • 990 kbps • 16 bit \ 44100 Hz • stereo; 47.29 MB (49 585 644 B)] 03 Back to the Wall.flac [04:14.360; FLAC • 1057 kbps • 16 bit \ 44100 Hz • stereo; 32.05 MB (33 611 891 B)] 04 Hypocrisy.flac [05:13.600; FLAC • 1041 kbps • 16 bit \ 44100 Hz • stereo; 38.92 MB (40 815 122 B)] 05 Wish It Was You.flac [05:29.400; FLAC • 949 kbps • 16 bit \ 44100 Hz • stereo; 37.27 MB (39 078 797 B)] 06 Ole Jose.flac [07:10.693; FLAC • 919 kbps • 16 bit \ 44100 Hz • stereo; 47.18 MB (49 476 227 B)] 07 Golden.flac [09:25.267; FLAC • 855 kbps • 16 bit \ 44100 Hz • stereo; 57.66 MB (60 456 728 B)] 08 The Night Riders.flac [06:11.547; FLAC • 971 kbps • 16 bit \ 44100 Hz • stereo; 43.04 MB (45 128 555 B)] 09 Out for a Cruise.flac [05:38.560; FLAC • 1011 kbps • 16 bit \ 44100 Hz • stereo; 40.81 MB (42 791 286 B)]
Accuracy: -m0
File 01 Trapped by You - 100% CDDA [05:03:66]File 02 The Rise of the Phoenix - 100% CDDA [06:40:25]File 03 Back to the Wall - 100% CDDA [04:14:27]File 04 Hypocrisy - 99% CDDA [05:13:45]File 05 Wish It Was You - 100% CDDA [05:29:30]File 06 Ole Jose - 100% CDDA [07:10:52]File 07 Golden - 100% CDDA [09:25:20]File 08 The Night Riders - 100% CDDA [06:11:41]File 09 Out for a Cruise - 100% CDDA [05:38:42]————— Summary: —————These tracks looks like CDDA with probability 100%.————————————————————————————————————————————————————————————————————————
ANALYZER: auCDtect: CD records authenticity detector, version 0.8.2 Copyright (c) 2004 Oleg Berngardt. All rights reserved. Copyright (c) 2004 Alexander Djourik. All rights reserved.
Time elapsed: 2 m 30 sLog created at March 16, 2019 08:09:49
=== B2D690405355215B77DF16D730A6722899A16D63CB177FCC2F69B371BE8909A1 ===

CUETools

[CUETools log; Date: 16.03.2019 8:05:32; Version: 2.1.6][CTDB TOCID: 0PoA4YP2.4tjh4LKHcAy_6hNiM0-] disk not present in database.[AccurateRip ID: 0012055c-008645cf-730ceb09] disk not present in database.
Track Peak [ CRC32 ] [W/O NULL] -- 96,6 [88A06CC3] [76DB2B05] 01 96,6 [42B55A58] [2BB443D2] 02 96,6 [17455CFA] [46A6683C] 03 96,6 [34B9514E] [2E4A9FBD] 04 96,6 [F7F2C51C] [AAF75E47] 05 96,6 [E0C102F8] [A7E97C40] 06 96,6 [CF83D9A2] [275CA0DB] 07 96,6 [32082B85] [7FC6907F] 08 96,6 [89BAFC5D] [33F5C590] 09 96,6 [05BDD7AF] [7D02ED0A]

DR

foobar2000 1.4.2 / Замер динамического диапазона (DR) 1.1.1Дата отчёта:  2019-03-16 08:03:19
--------------------------------------------------------------------------------Анализ: The RLN / The Rise of the Phoenix--------------------------------------------------------------------------------
DR Пики RMS Продолжительность трека--------------------------------------------------------------------------------DR6 -0.30 дБ -8.01 дБ 5:04 01-Trapped by YouDR6 -0.30 дБ -7.82 дБ 6:40 02-The Rise of the PhoenixDR6 -0.30 дБ -7.88 дБ 4:14 03-Back to the WallDR7 -0.30 дБ -8.69 дБ 5:14 04-HypocrisyDR6 -0.30 дБ -8.57 дБ 5:29 05-Wish It Was YouDR8 -0.30 дБ -11.54 дБ 7:11 06-Ole JoseDR8 -0.30 дБ -14.27 дБ 9:25 07-GoldenDR7 -0.30 дБ -9.45 дБ 6:12 08-The Night RidersDR6 -0.30 дБ -7.77 дБ 5:39 09-Out for a Cruise--------------------------------------------------------------------------------
Количество треков: 9Реальные значения DR: DR7
Частота: 44100 ГцКаналов: 2Разрядность: 16Битрейт: 996 кбит/сКодек: FLAC================================================================================

If you like the topic, please click share to help develop our site.

To download the file disable ad blocking, and reload the page.

disable adblock How to disable ad blocking?

Download by magnet link 380 MB Download Torrent

Login using:

Similar topics



   
Current time is: 15-Jun 23:31 :: All times are UTC + 3