-oasis
(WHAT'S THE STORY) MORNING GLORY ?

-Genre: Britpop
Originally released: 2 October 1995
Country: UK
CD: Austria, Sony, 481020 2, (1995)
Audio: FLAC (image+.cue)
Total time: 50:06
Source: own rip
Scans: 600 dpi .jpg
-01. Hello (3:21)
02. Roll with It (3:59)
03. Wonderwall (4:18)
04. Don't Look Back in Anger (4:47)
05. Hey Now! (5:41)
06. Untitled (0:44)
07. Some Might Say (5:28)
08. Cast No Shadow (4:51)
09. She's Electric (3:40)
10. Morning Glory (5:04)
11. Untitled (00:39)
12. Champagne Supernova (7:27)
-

Credits

Liam Gallagher – lead vocals, tambourine
Noel Gallagher – lead, rhythm and acoustic guitars, vocals (lead on "Don't Look Back in Anger", "Talk Tonight", "It's Better People", "Step Out", "The Masterplan", "Bonehead's Bank Holiday", and "You've Got to Hide Your Love Away"), bass guitar (on "Wonderwall"), piano, organ, mellotron, e-bow, string and brass arrangements, production
Paul "Bonehead" Arthurs – rhythm and acoustic guitars, piano, organ, mellotron, melodica on "Champagne Supernova", drunk vocals on "Bonehead's Bank Holiday"
Paul "Guigsy" McGuigan – bass guitar (except on "Wonderwall")
Alan White – drums, percussion (except on "Some Might Say", "Acquiesce", and "Headshrinker")
Tony McCarroll – drums on "Some Might Say", "Acquiesce", and "Headshrinker"
Paul Weller – lead guitar and backing vocals on "Champagne Supernova" and harmonica on "Untitled" (excerpt 1 and 2)
Produced by Owen Morris
-

Log

Exact Audio Copy V1.3 from 2. September 2016
EAC extraction logfile from 16. March 2019, 16:55
Oasis / What's the Story Morning Glory (481020 2)
Used drive : HL-DT-STDVDRAM GE20NU11 Adapter: 1 ID: 0
Read mode : SecureUtilize accurate stream : YesDefeat audio cache : YesMake use of C2 pointers : No
Read offset correction : 667Overread into Lead-In and Lead-Out : NoFill up missing offset samples with silence : YesDelete leading and trailing silent blocks : NoNull samples used in CRC calculations : YesUsed interface : Native Win32 interface for Win NT & 2000
Used output format : User Defined EncoderSelected bitrate : 896 kBit/sQuality : HighAdd ID3 tag : NoCommand line compressor : C:\Program Files\Exact Audio Copy\Flac\flac.exeAdditional command line options : -V -8 -T "Date=%year%" -T "Genre=%genre%" %source%
TOC of the extracted CD
Track | Start | Length | Start sector | End sector --------------------------------------------------------- 1 | 0:00.00 | 3:21.50 | 0 | 15124 2 | 3:21.50 | 3:59.62 | 15125 | 33111 3 | 7:21.37 | 4:18.63 | 33112 | 52524 4 | 11:40.25 | 4:47.62 | 52525 | 74111 5 | 16:28.12 | 5:41.43 | 74112 | 99729 6 | 22:09.55 | 0:44.45 | 99730 | 103074 7 | 22:54.25 | 5:28.40 | 103075 | 127714 8 | 28:22.65 | 4:51.50 | 127715 | 149589 9 | 33:14.40 | 3:40.02 | 149590 | 166091 10 | 36:54.42 | 5:04.00 | 166092 | 188891 11 | 41:58.42 | 0:39.63 | 188892 | 191879 12 | 42:38.30 | 7:27.62 | 191880 | 225466
Range status and errors
Selected range
Filename Z:\OdW\Oasis - 1995 - (What's the Story) Morning Glory (481020 2)\Oasis - What's the Story Morning Glory (481020 2).wav
Peak level 98.9 % Extraction speed 6.8 X Range quality 100.0 % Test CRC 933EACD0 Copy CRC 933EACD0 Copy OK
No errors occurred
AccurateRip summary
Track 1 accurately ripped (confidence 200) [6FA4F17B] (AR v2)Track 2 accurately ripped (confidence 200) [CAA8F4A0] (AR v2)Track 3 accurately ripped (confidence 200) [8E95CA7F] (AR v2)Track 4 accurately ripped (confidence 200) [E4CD70B3] (AR v2)Track 5 accurately ripped (confidence 200) [7C74AA9F] (AR v2)Track 6 accurately ripped (confidence 200) [3212C408] (AR v2)Track 7 accurately ripped (confidence 200) [5166D116] (AR v2)Track 8 accurately ripped (confidence 200) [F8ED8A5C] (AR v2)Track 9 accurately ripped (confidence 200) [093F7AE3] (AR v2)Track 10 accurately ripped (confidence 200) [A38B95E6] (AR v2)Track 11 accurately ripped (confidence 200) [1438B0A1] (AR v2)Track 12 accurately ripped (confidence 200) [E906E3E3] (AR v2)
All tracks accurately ripped
End of status report
---- CUETools DB Plugin V2.1.6
[CTDB TOCID: aUp6nnSWKXI36h3bz78alaKphUA-] foundSubmit result: already submitted, already submittedTrack | CTDB Status 1 | (2821/2845) Accurately ripped 2 | (2819/2845) Accurately ripped 3 | (2821/2845) Accurately ripped 4 | (2816/2845) Accurately ripped 5 | (2821/2845) Accurately ripped 6 | (2820/2845) Accurately ripped 7 | (2818/2845) Accurately ripped 8 | (2815/2845) Accurately ripped 9 | (2812/2845) Accurately ripped 10 | (2811/2845) Accurately ripped 11 | (2814/2845) Accurately ripped 12 | (2799/2845) Accurately ripped
==== Log checksum 6C4A8F676C54CAD8F635350F096E7BF496EACD826446F1C782CB1729C66CD151 ====

.cue

REM GENRE BritpopREM DATE 1995REM DISCID 8C0BBE0CREM COMMENT "ExactAudioCopy v1.3"PERFORMER "Oasis"TITLE "What's the Story Morning Glory (481020 2)"REM COMPOSER ""FILE "Oasis - What's the Story Morning Glory (481020 2).flac" WAVE  TRACK 01 AUDIO    TITLE "Hello"    PERFORMER "Oasis"    REM COMPOSER ""    INDEX 01 00:00:00  TRACK 02 AUDIO    TITLE "Roll with It"    PERFORMER "Oasis"    REM COMPOSER ""    INDEX 01 03:21:50  TRACK 03 AUDIO    TITLE "Wonderwall"    PERFORMER "Oasis"    REM COMPOSER ""    INDEX 01 07:21:37  TRACK 04 AUDIO    TITLE "Don't Look Back in Anger"    PERFORMER "Oasis"    REM COMPOSER ""    INDEX 01 11:40:25  TRACK 05 AUDIO    TITLE "Hey Now!"    PERFORMER "Oasis"    REM COMPOSER ""    INDEX 01 16:28:12  TRACK 06 AUDIO    TITLE "Untitled"    PERFORMER "Oasis"    REM COMPOSER ""    INDEX 01 22:09:55  TRACK 07 AUDIO    TITLE "Some Might Say"    PERFORMER "Oasis"    REM COMPOSER ""    INDEX 01 22:54:25  TRACK 08 AUDIO    TITLE "Cast No Shadow"    PERFORMER "Oasis"    REM COMPOSER ""    INDEX 01 28:22:65  TRACK 09 AUDIO    TITLE "She's Electric"    PERFORMER "Oasis"    REM COMPOSER ""    INDEX 01 33:14:40  TRACK 10 AUDIO    TITLE "Morning Glory"    PERFORMER "Oasis"    REM COMPOSER ""    INDEX 01 36:54:42  TRACK 11 AUDIO    TITLE "Untitled"    PERFORMER "Oasis"    REM COMPOSER ""    INDEX 01 41:58:42  TRACK 12 AUDIO    TITLE "Champagne Supernova"    PERFORMER "Oasis"    REM COMPOSER ""    INDEX 01 42:38:30

.accurip

[CUETools log; Date: 16.03.2019 16:59:36; Version: 2.1.5][CTDB TOCID: aUp6nnSWKXI36h3bz78alaKphUA-] found.Track | CTDB Status  1   | (2821/2845) Accurately ripped  2   | (2819/2845) Accurately ripped  3   | (2821/2845) Accurately ripped  4   | (2816/2845) Accurately ripped  5   | (2821/2845) Accurately ripped  6   | (2820/2845) Accurately ripped  7   | (2818/2845) Accurately ripped  8   | (2815/2845) Accurately ripped  9   | (2812/2845) Accurately ripped 10   | (2811/2845) Accurately ripped 11   | (2814/2845) Accurately ripped 12   | (2799/2845) Accurately ripped[AccurateRip ID: 0015c773-00cc04b1-8c0bbe0c] found.Track   [  CRC   |   V2   ] Status 01     [34343b4c|6fa4f17b] (200+200/830) Accurately ripped 02     [4770cd13|caa8f4a0] (200+200/830) Accurately ripped 03     [7cb364ca|8e95ca7f] (200+200/833) Accurately ripped 04     [91e8ede4|e4cd70b3] (200+200/832) Accurately ripped 05     [d5b342b7|7c74aa9f] (200+200/830) Accurately ripped 06     [ea7d22c7|3212c408] (200+200/830) Accurately ripped 07     [9e976f03|5166d116] (200+200/830) Accurately ripped 08     [45af90d8|f8ed8a5c] (200+200/830) Accurately ripped 09     [4450fec5|093f7ae3] (200+200/829) Accurately ripped 10     [0badde1a|a38b95e6] (200+200/829) Accurately ripped 11     [4377f9f4|1438b0a1] (200+200/828) Accurately ripped 12     [8c3f1745|e906e3e3] (200+200/829) Accurately rippedOffsetted by -1068: 01     [29a18306] (005/830) Accurately ripped 02     [4952a472] (005/830) Accurately ripped 03     [a91f1b6a] (005/833) Accurately ripped 04     [8e3de5af] (005/832) Accurately ripped 05     [836b995e] (005/830) Accurately ripped 06     [b2ce244d] (005/830) Accurately ripped 07     [b44a1287] (005/830) Accurately ripped 08     [4280d3c9] (005/830) Accurately ripped 09     [1a9e0cc7] (005/829) Accurately ripped 10     [46a09de1] (005/829) Accurately ripped 11     [42c47a20] (005/828) Accurately ripped 12     [19bda41a] (005/829) Accurately rippedOffsetted by -949: 01     [33981251] (200/830) Accurately ripped 02     [9600fb6a] (200/830) Accurately ripped 03     [faf8594e] (200/833) Accurately ripped 04     [385f8395] (200/832) Accurately ripped 05     [6760b3e0] (200/830) Accurately ripped 06     [621e7a53] (200/830) Accurately ripped 07     [30ec85a4] (200/830) Accurately ripped 08     [cd833823] (200/830) Accurately ripped 09     [adcb9eb4] (200/829) Accurately ripped 10     [3dc6b544] (200/829) Accurately ripped 11     [795b8aed] (200/828) Accurately ripped 12     [53f079d9] (200/829) Accurately rippedOffsetted by -948: 01     [d6241acb] (005/830) Accurately ripped 02     [5d766723] (005/830) Accurately ripped 03     [4179c4ff] (007/833) Accurately ripped 04     [2dc5e74c] (006/832) Accurately ripped 05     [ce547fe1] (005/830) Accurately ripped 06     [e6223b2b] (005/830) Accurately ripped 07     [616160a7] (005/830) Accurately ripped 08     [3d848d84] (005/830) Accurately ripped 09     [bdc0092a] (005/829) Accurately ripped 10     [f0e90f8c] (005/829) Accurately ripped 11     [184193f6] (005/828) Accurately ripped 12     [779d2eee] (006/829) Accurately rippedOffsetted by -1815: 01     [8aee1a42] (002/830) Accurately ripped 02     [324e789c] (002/830) Accurately ripped 03     [89fcec65] (002/833) Accurately ripped 04     [537b2dc1] (002/832) Accurately ripped 05     [23372ff7] (002/830) Accurately ripped 06     [82edbdce] (002/830) Accurately ripped 07     [1463b92c] (002/830) Accurately ripped 08     [ec6a7c87] (002/830) Accurately ripped 09     [35e79083] (002/829) Accurately ripped 10     [710f7923] (002/829) Accurately ripped 11     [0b1a6a6b] (002/828) Accurately ripped 12     [198ea851] (000/829) No match (V2 was not tested)Offsetted by -1621: 01     [cde1a99d] (000/830) No match (V2 was not tested) 02     [7eb536da] (000/830) No match (V2 was not tested) 03     [f2c86128] (000/833) No match (V2 was not tested) 04     [6066f94b] (000/832) No match (V2 was not tested) 05     [ddfe790a] (000/830) No match (V2 was not tested) 06     [7e1e2ba1] (000/830) No match (V2 was not tested) 07     [3032d616] (000/830) No match (V2 was not tested) 08     [44da1e32] (000/830) No match (V2 was not tested) 09     [a84e428d] (000/829) No match (V2 was not tested) 10     [67bac534] (000/829) No match (V2 was not tested) 11     [49233bc9] (000/828) No match (V2 was not tested) 12     [51375a43] (000/829) No match (V2 was not tested)Offsetted by -1015: 01     [10137bca] (000/830) No match (V2 was not tested) 02     [4dcb9ed8] (000/830) No match (V2 was not tested) 03     [62b964c2] (000/833) No match (V2 was not tested) 04     [061ef6ec] (000/832) No match (V2 was not tested) 05     [0e9dd9c3] (000/830) No match (V2 was not tested) 06     [4bdaa980] (000/830) No match (V2 was not tested) 07     [302cd94e] (000/830) No match (V2 was not tested) 08     [bf0b2c60] (000/830) No match (V2 was not tested) 09     [2de81a43] (000/829) No match (V2 was not tested) 10     [50ab99bd] (000/829) No match (V2 was not tested) 11     [d96fceb6] (000/828) No match (V2 was not tested) 12     [288e9973] (000/829) No match (V2 was not tested)Offsetted by -943: 01     [2dc76265] (000/830) No match 02     [5bdf37c0] (000/830) No match 03     [74d418cd] (000/833) No match 04     [f8acd9aa] (000/832) No match (V2 was not tested) 05     [a40d6ebb] (000/830) No match 06     [4d645758] (000/830) No match 07     [a5c533a0] (000/830) No match 08     [7ec0afb2] (000/830) No match 09     [46f7a35a] (000/829) No match 10     [eeb9d93e] (000/829) No match 11     [7509ec30] (000/828) No match 12     [246ee651] (000/829) No matchOffsetted by -883: 01     [3ba5c491] (002/830) Accurately ripped 02     [a5480499] (002/830) Accurately ripped 03     [2a3cbf0a] (002/833) Accurately ripped 04     [6aff00fc] (002/832) Accurately ripped 05     [f315f15c] (002/830) Accurately ripped 06     [ebbb9699] (000/830) No match (V2 was not tested) 07     [b673a2f0] (002/830) Accurately ripped 08     [2d222386] (002/830) Accurately ripped 09     [a5b5b161] (002/829) Accurately ripped 10     [f0c28b0f] (002/829) Accurately ripped 11     [7801568c] (002/828) Accurately ripped 12     [f7fe38d7] (002/829) Accurately ripped
Track Peak [ CRC32 ] [W/O NULL] [ LOG ] -- 98,9 [933EACD0] [C2A2DC67] CRC32 01 98,9 [CCD91F65] [BBF183EA] 02 98,9 [4A961B16] [5D73C4D8] 03 98,9 [24F4FD4A] [87CAF6E8] 04 98,9 [25BB272B] [AE4D80B8] 05 98,9 [29E0224D] [54872F50] 06 98,9 [4AB81A34] [AC769393] 07 98,9 [B5E9FC96] [14C513C9] 08 98,9 [C9255BFE] [74AA0C61] 09 98,9 [A2F2B7D1] [B0A04438] 10 98,9 [2E3476B1] [42A0854B] 11 88,5 [DDAFE5A2] [F0FD2CAE] 12 98,9 [9D9CB0CA] [9F05E838]
-

CD, Matrix, Back




If you like the topic, please click share to help develop our site.

To download the file disable ad blocking, and reload the page.

disable adblock How to disable ad blocking?

Download by magnet link 445 MB Download Torrent

Login using:

Similar topics



   
Current time is: 20-Jun 18:17 :: All times are UTC + 3