Sathanas - 1997 - Armies of Charon
Жанр: Blackened Death Metal
Носитель: CD
Страна-производитель диска (релиза): UK
Год издания: 1997
Издатель (лейбл): Conquistador Records
Номер по каталогу: Cortés002CD
Страна исполнителя (группы): USA
Аудиокодек: FLAC (*.flac)
Тип рипа: image+.cue
Битрейт аудио: lossless
Продолжительность: 35:24
Источник: собственный рип
Наличие сканов в содержимом раздачи: да
Треклист:
1 Intro 1:13
2 Armies Of Charon 2:36
3 Servant To The Ungod 3:15
4 Exorcism 3:26
5 Palace Of Belial 5:16
6 Resurrect 3:44
7 Before The Throne 2:48
8 Into Darkness 3:52
9 Devoured By The Beast 3:05
10 Prophecy Unfolds 3:24
11 Writhe In Sin 2:39

Лог создания рипа

Exact Audio Copy V1.0 beta 4 from 7. December 2014
Отчёт EAC об извлечении, выполненном 16. марта 2019, 21:14
Sathanas / Armies Of Charon
Дисковод: PIONEER BD-RW BDR-207D Adapter: 1 ID: 0
Режим чтения : ДостоверностьИспользование точного потока : ДаОтключение кэша аудио : ДаИспользование указателей C2 : Нет
Коррекция смещения при чтении : 667Способность читать области Lead-in и Lead-out : НетЗаполнение пропущенных сэмплов тишиной : ДаУдаление блоков с тишиной в начале и конце : НетПри вычислениях CRC использовались нулевые сэмплы : ДаИнтерфейс : Встроенный Win32-интерфейс для Win NT/2000
Выходной формат : Пользовательский кодировщикВыбранный битрейт : 1024 kBit/sКачество : ВысокийДобавление ID3-тега : НетУтилита сжатия : C:\Program Files (x86)\Exact Audio Copy\Flac\flac.exeДополнительные параметры : -V -8 -T "Date=%year%" -T "Genre=%genre%" %source%
TOC извлечённого CD
Трек | Старт | Длительность | Начальный сектор | Конечный сектор --------------------------------------------------------------------- 1 | 0:00.00 | 1:13.72 | 0 | 5546 2 | 1:13.72 | 2:36.56 | 5547 | 17302 3 | 3:50.53 | 3:15.15 | 17303 | 31942 4 | 7:05.68 | 3:26.32 | 31943 | 47424 5 | 10:32.25 | 5:16.55 | 47425 | 71179 6 | 15:49.05 | 3:44.70 | 71180 | 88049 7 | 19:34.00 | 2:48.17 | 88050 | 100666 8 | 22:22.17 | 3:52.18 | 100667 | 118084 9 | 26:14.35 | 3:05.49 | 118085 | 132008 10 | 29:20.09 | 3:24.52 | 132009 | 147360 11 | 32:44.61 | 2:39.28 | 147361 | 159313
Характеристики диапазона извлечения и сообщения об ошибках
Выбранный диапазон
Имя файла F:\BFM\Sathanas - Armies Of Charon\Sathanas - Armies Of Charon.wav
Пиковый уровень 98.8 % Скорость извлечения 6.6 X Качество диапазона 99.9 % CRC теста EA1B2FB7 CRC копии EA1B2FB7 Копирование... OK
Ошибок не произошло
AccurateRip: сводка
Трек 1 : извлечено точно (доверие 1) [5E62DE5B] (AR v2)Трек 2 : извлечено точно (доверие 1) [99C8F9B0] (AR v2)Трек 3 : извлечено точно (доверие 1) [94ED401E] (AR v2)Трек 4 : извлечено точно (доверие 1) [28284CE0] (AR v2)Трек 5 : извлечено точно (доверие 1) [2773CBD1] (AR v2)Трек 6 : извлечено точно (доверие 1) [C66E2A60] (AR v2)Трек 7 : извлечено точно (доверие 1) [DE84D4D1] (AR v2)Трек 8 : извлечено точно (доверие 1) [B4B2F601] (AR v2)Трек 9 : извлечено точно (доверие 1) [E82684ED] (AR v2)Трек 10 : извлечено точно (доверие 1) [E4ECF4AC] (AR v2)Трек 11 : извлечено точно (доверие 1) [6F9A06C6] (AR v2)
Все треки извлечены точно
Конец отчёта
==== Контрольная сумма отчёта 2F5F21A04A0824CFE531754222779EC148D2D68738550F2854568AA5DA062AF0 ====

Состав

Bill Davidson - Bass, Vocals
Paul Tucker - Guitars, Vocals
Jim Baker - Drums

If you like the topic, please click share to help develop our site.

To download the file disable ad blocking, and reload the page.

disable adblock How to disable ad blocking?

Download by magnet link 289 MB Download Torrent

Login using:

Similar topics

(Blackened Death Metal ) Vinnfrost - Initiation - 2019, MP3, 320 kbps
 86 MB   0 | 0   13-Jun-19 01:35   1
(Blackened Death Metal) Warforged - I: Voice - 2019, MP3, 320 kbps
 167 MB   0 | 0   10-May-19 23:55   3


   
Current time is: 20-Jun 18:01 :: All times are UTC + 3