Frostkrieg - 2006 - Das Astrale Fenster (EP)
Жанр: Black Metal
Носитель: CD
Страна-производитель диска (релиза): Greece
Год издания: 2007
Издатель (лейбл): Nykta
Номер по каталогу: NYKTA 019
Страна исполнителя (группы): Germany
Аудиокодек: FLAC (*.flac)
Тип рипа: image+.cue
Битрейт аудио: lossless
Продолжительность: 25:46
Источник: собственный рип
Наличие сканов в содержимом раздачи: да
Треклист:
1. Einklang - Der Flug des Kosmokraten 01:36
2. Höre das Horn der Irrealität 05:16
3. Carcassonne 05:25
4. Aldebaran 03:17
5. Tormentor (Kreator cover) 02:57
6. Gods of the North 04:52
7. Ausklang - Euthanatos 02:20
Доп. информация: Released in digipak limited to 500 copies.

Лог создания рипа

Exact Audio Copy V1.0 beta 4 from 7. December 2014
Отчёт EAC об извлечении, выполненном 15. марта 2019, 13:30
Frostkrieg / Das Astrale Fenster
Дисковод: PIONEER BD-RW BDR-207D Adapter: 1 ID: 0
Режим чтения : ДостоверностьИспользование точного потока : ДаОтключение кэша аудио : ДаИспользование указателей C2 : Нет
Коррекция смещения при чтении : 667Способность читать области Lead-in и Lead-out : НетЗаполнение пропущенных сэмплов тишиной : ДаУдаление блоков с тишиной в начале и конце : НетПри вычислениях CRC использовались нулевые сэмплы : ДаИнтерфейс : Встроенный Win32-интерфейс для Win NT/2000
Выходной формат : Пользовательский кодировщикВыбранный битрейт : 1024 kBit/sКачество : ВысокийДобавление ID3-тега : НетУтилита сжатия : C:\Program Files (x86)\Exact Audio Copy\Flac\flac.exeДополнительные параметры : -V -8 -T "Date=%year%" -T "Genre=%genre%" %source%
TOC извлечённого CD
Трек | Старт | Длительность | Начальный сектор | Конечный сектор --------------------------------------------------------------------- 1 | 0:00.00 | 1:36.40 | 0 | 7239 2 | 1:36.40 | 5:16.21 | 7240 | 30960 3 | 6:52.61 | 5:25.17 | 30961 | 55352 4 | 12:18.03 | 3:17.17 | 55353 | 70144 5 | 15:35.20 | 2:57.28 | 70145 | 83447 6 | 18:32.48 | 4:52.19 | 83448 | 105366 7 | 23:24.67 | 2:20.71 | 105367 | 115937
Характеристики диапазона извлечения и сообщения об ошибках
Выбранный диапазон
Имя файла F:\BFM\Frostkrieg - Das Astrale Fenster\Frostkrieg - Das Astrale Fenster.wav
Пиковый уровень 100.0 % Скорость извлечения 6.1 X Качество диапазона 99.9 % CRC теста 20263B3A CRC копии 20263B3A Копирование... OK
Ошибок не произошло
AccurateRip: сводка
Трек 1 : извлечено точно (доверие 2) [88A2B954] (AR v1)Трек 2 : извлечено точно (доверие 2) [F9087025] (AR v1)Трек 3 : извлечено точно (доверие 2) [B7A050D5] (AR v1)Трек 4 : извлечено точно (доверие 2) [1E424B65] (AR v1)Трек 5 : извлечено точно (доверие 2) [A6E0FED0] (AR v1)Трек 6 : извлечено точно (доверие 2) [82E536C5] (AR v1)Трек 7 : извлечено точно (доверие 2) [FBB178C5] (AR v1)
Все треки извлечены точно
Конец отчёта
==== Контрольная сумма отчёта 587165261D71C0E15E0609A108803E521A52446AC7020D0087B5932E0A5AAC02 ====

Состав

Oliver - Guitars (lead)
Necromoon - Drums
Arctos - Keyboards, Guitar, Vocals
Werwolf - Bass

If you like the topic, please click share to help develop our site.

To download the file disable ad blocking, and reload the page.

disable adblock How to disable ad blocking?

Download by magnet link 173 MB Download Torrent

Login using:

Similar topics

(Black Metal) [CD] Darkthrone - Old Star - 2019, FLAC (tracks), lossless
 295 MB   0 | 0   30-May-19 16:50   2


   
Current time is: 15-Jun 23:51 :: All times are UTC + 3