Первые цивилизации / First Civilizations
Год выпуска: 2018
Страна: Великобритания, Франция, Австралия
Студия: Wall to Wall, ARTE France, SBS-TV Australia
Жанр: Документальный, история, исследование
Продолжительность: 4 x ~00:54:00
Перевод: Одноголосый закадровый
Доп. инфо о переводе: студия SDI Media
Русские субтитры: нет
Режиссер: Том Цебула, Робин Дэшвуд / Tom Cebula, Robin Dashwood
Описание: Первые цивилизации определяют четыре краеугольных камня: война, религия, города и торговля. Используя последние достижения в области археологии, антропологии и генетики, этот сериал рассказывает о том, с чего начался современный мир. Исследуя артефакты, посещая места археологических раскопок, мы переместимся по географическим зонам мира, исследуя, как и почему возникли первые цивилизации.
Доп. информация: Релиз:
и
Сэмпл: https://dropmefiles.com/3JdMm
Тип релиза: WEB-DL 1080p
Контейнер: MKV
Видео: 1920x1080 at 25.000 fps, MPEG-4 AVC, ~ 11.9 Mbps avg
Аудио: Русский: 48 kHz, AC3, 2/0 (L,R) ch, ~192.00 kbps avg | студия SDI Media, текст читает Владимир Рыбальченко |
Аудио 2: English: 48 kHz, E-AC3, 2/0 (L,R) ch, ~224.00 kbps avg
Формат субтитров: English, softsub (SRT)

Список серий

01. Война / War
Процесс «разрушительного (деструктивного) творения» - идея, предполагающая, что страх, соперничество и конфликты укрепляют узы сообщества и стимулируют «гонку вооружений» технологического прогресса. Результатом является цивилизация. Древняя Мезоамерика иллюстрирует это развитие.
02. Религия / Religion
Тайной стабильности древнего Египта была религия. Общая вера заставляет людей чувствовать себя едиными. Так было при первых цивилизациях, так осталось и поныне
03. Города / Cities
Взгляните на место рождения цивилизации - Ближний Восток, место, где появились первые в мире города, от холмов Турции до равнин Ирака. Здесь ковались изобретения и инновации
04. Торговля / Trade
Мы внимательнее изучим долину реки Инд. Здесь порядок не навязывался с помощью войны или религии, а регулировался свободной торговлей. Обмен товарами порождал процветание, сотрудничество и доверие

MediaInfo

ОбщееПолное имя                               : S01E01.War.Rus.Eng-BLUEBIRD.mkvФормат                                   : MatroskaВерсия формата                           : Version 4 / Version 2Размер файла                             : 4,62 ГбайтПродолжительность                        : 53 м. 46 с.Режим общего битрейта                    : ПеременныйОбщий поток                              : 12,3 Мбит/секДата кодирования                         : UTC 2019-02-16 10:03:35Программа кодирования                    : mkvmerge v8.0.0 ('Til The Day That I Die') 32bitБиблиотека кодирования                   : libebml v1.3.1 + libmatroska v1.4.2
ВидеоИдентификатор : 1Формат : AVCФормат/Информация : Advanced Video CodecПрофиль формата : [email protected]Настройки формата : CABAC / 4 Ref FramesПараметр CABAC формата : ДаПараметр RefFrames формата : 4 кадраИдентификатор кодека : V_MPEG4/ISO/AVCПродолжительность : 53 м. 46 с.Вид битрейта : ПеременныйБитрейт : 11,9 Мбит/секМаксимальный битрейт : 15,0 Мбит/секШирина : 1920 пикселейВысота : 1080 пикселейСоотношение сторон : 16:9Режим частоты кадров : ПостоянныйЧастота кадров : 25,000 кадров/секЦветовое пространство : YUVСубдискретизация насыщенности : 4:2:0Битовая глубина : 8 битТип развёртки : ПрогрессивнаяБит/(Пиксели*Кадры) : 0.229Размер потока : 4,46 Гбайт (97%)Заголовок : MPEG-4 AVC Video / 11.9 Mbps / 1080p / 25 fps / 16:9 / High Profile 4Язык : EnglishDefault : ДаForced : НетЦветовой диапазон : LimitedОсновные цвета : BT.709Характеристики трансфера : BT.709Коэффициенты матрицы : BT.709
Аудио #1Идентификатор : 2Формат : AC-3Формат/Информация : Audio Coding 3Идентификатор кодека : A_AC3Продолжительность : 53 м. 46 с.Вид битрейта : ПостоянныйБитрейт : 192 Кбит/секКаналы : 2 каналаРасположение каналов : Front: L RЧастота : 48,0 КГцЧастота кадров : 31,250 кадров/сек (1536 SPF)Битовая глубина : 16 битМетод сжатия : С потерямиРазмер потока : 73,8 Мбайт (2%)Заголовок : rus / AC3 / 2.0 / 48 kHz / 192 kbps / 16-bitЯзык : RussianServiceKind/String : Complete MainDefault : ДаForced : Да
Аудио #2Идентификатор : 3Формат : E-AC-3Формат/Информация : Enhanced Audio Coding 3Идентификатор кодека : A_EAC3Продолжительность : 53 м. 46 с.Вид битрейта : ПостоянныйБитрейт : 224 Кбит/секКаналы : 2 каналаРасположение каналов : Front: L RЧастота : 48,0 КГцЧастота кадров : 187,500 кадров/сек (256 SPF)Метод сжатия : С потерямиРазмер потока : 86,1 Мбайт (2%)Заголовок : eng / E-AC3 / 2.0 / 48 kHz / 224 kbps / 16-bitЯзык : EnglishServiceKind/String : Complete MainDefault : НетForced : Нет
ТекстИдентификатор : 4Формат : UTF-8Идентификатор кодека : S_TEXT/UTF8Идентификатор кодека/Информация : UTF-8 Plain TextПродолжительность : 53 м. 10 с.Битрейт : 74 бит/секElementCount : 735Размер потока : 29,2 Кбайт (0%)Заголовок : eng / SRTЯзык : EnglishDefault : ДаForced : Нет

Скриншоты



Благодарности

Выражаем нашу искреннюю благодарность alf62 за предоставленные для релиза дорожки

If you like the topic, please click share to help develop our site.

To download the file disable ad blocking, and reload the page.

disable adblock How to disable ad blocking?

Download by magnet link 17.53 GB Download Torrent

Login using:

Similar topics



   
Current time is: 20-Jun 18:26 :: All times are UTC + 3