Giorgio Moroder / From Here To Eternity ... And Back
Жанр: Synth-pop, Disco
Носитель: CD
Год издания: 1985
Издатель (лейбл): Casablanca
Номер по каталогу: 822 661-2 M-1
Аудиокодек: FLAC (*.flac)
Тип рипа: tracks+.cue
Битрейт аудио: lossless
Продолжительность: 62:56
Источник: red
Наличие сканов в содержимом раздачи: да
Треклист:
01. Giorgio Moroder - Evolution (15:16)
02. Giorgio Moroder - From Here To Eternity (5:56)
03. Giorgio Moroder - Faster Than The Speed Of Love (1:53)
04. Giorgio Moroder - Lost Angeles (2:43)
05. Giorgio Moroder - Utopia - Me Giorgio (3:22)
06. Giorgio Moroder - From Here To Eternity (Reprise) (1:47)
07. Giorgio Moroder - Valley Of The Dolls (10:39)
08. Giorgio Moroder - I Wanna Rock You (6:31)
09. Giorgio Moroder - Chase (Remix) (4:23)
10. Giorgio Moroder - Oh What A Night (4:58)
11. Giorgio Moroder - I Wanna Funk With You Tonight (5:27)

Лог создания рипа

Exact Audio Copy V1.0 beta 3 from 29. August 2011
EAC extraction logfile from 26. August 2016, 18:48
Giorgio Moroder / From Here To Eternity ... And Back
Used drive : ASUS DRW-20B1LT Adapter: 2 ID: 0
Read mode : SecureUtilize accurate stream : YesDefeat audio cache : YesMake use of C2 pointers : No
Read offset correction : 6Overread into Lead-In and Lead-Out : NoFill up missing offset samples with silence : YesDelete leading and trailing silent blocks : NoNull samples used in CRC calculations : YesUsed interface : Native Win32 interface for Win NT & 2000Gap handling : Appended to previous track
Used output format : User Defined EncoderSelected bitrate : 896 kBit/sQuality : HighAdd ID3 tag : NoCommand line compressor : C:\Program Files\Exact Audio Copy\Flac\flac.exeAdditional command line options : -8 -V -T "ARTIST=%artist%" -T "TITLE=%title%" -T "ALBUM=%albumtitle%" -T "DATE=%year%" -T "TRACKNUMBER=%tracknr%" -T "GENRE=%genre%" -T "COMMENT=EAC FLAC -8" %source%
TOC of the extracted CD
Track | Start | Length | Start sector | End sector --------------------------------------------------------- 1 | 0:00.33 | 15:16.35 | 33 | 68767 2 | 15:16.68 | 5:55.42 | 68768 | 95434 3 | 21:12.35 | 1:53.23 | 95435 | 103932 4 | 23:05.58 | 2:43.02 | 103933 | 116159 5 | 25:48.60 | 3:21.53 | 116160 | 131287 6 | 29:10.38 | 1:46.65 | 131288 | 139302 7 | 30:57.28 | 10:38.67 | 139303 | 187219 8 | 41:36.20 | 6:31.33 | 187220 | 216577 9 | 48:07.53 | 4:23.25 | 216578 | 236327 10 | 52:31.03 | 4:58.35 | 236328 | 258712 11 | 57:29.38 | 5:26.67 | 258713 | 283229
Track 1
Filename K:\EACrips\Giorgio Moroder - From Here To Eternity ... And Back\01 - Evolution.wav
Pre-gap length 0:00:02.33
Peak level 99.3 % Extraction speed 4.6 X Track quality 100.0 % Test CRC 5F88EDCB Copy CRC 5F88EDCB Accurately ripped (confidence 11) [076CDF4C] (AR v2) Copy OK
Track 2
Filename K:\EACrips\Giorgio Moroder - From Here To Eternity ... And Back\02 - From Here To Eternity.wav
Pre-gap length 0:00:02.53
Peak level 72.4 % Extraction speed 4.5 X Track quality 99.9 % Test CRC A38E438F Copy CRC A38E438F Accurately ripped (confidence 10) [69246666] (AR v2) Copy OK
Track 3
Filename K:\EACrips\Giorgio Moroder - From Here To Eternity ... And Back\03 - Faster Than The Speed Of Love.wav
Peak level 68.4 % Extraction speed 4.5 X Track quality 100.0 % Test CRC A9CC9BE1 Copy CRC A9CC9BE1 Accurately ripped (confidence 11) [538E5718] (AR v2) Copy OK
Track 4
Filename K:\EACrips\Giorgio Moroder - From Here To Eternity ... And Back\04 - Lost Angeles.wav
Peak level 72.5 % Extraction speed 3.9 X Track quality 99.9 % Test CRC 699FE73E Copy CRC 699FE73E Accurately ripped (confidence 11) [10688CD6] (AR v2) Copy OK
Track 5
Filename K:\EACrips\Giorgio Moroder - From Here To Eternity ... And Back\05 - Utopia - Me Giorgio.wav
Peak level 79.0 % Extraction speed 5.5 X Track quality 100.0 % Test CRC C99597EF Copy CRC C99597EF Accurately ripped (confidence 11) [3418A4A6] (AR v2) Copy OK
Track 6
Filename K:\EACrips\Giorgio Moroder - From Here To Eternity ... And Back\06 - From Here To Eternity (Reprise).wav
Peak level 77.8 % Extraction speed 3.4 X Track quality 99.9 % Test CRC 850487E9 Copy CRC 850487E9 Accurately ripped (confidence 11) [974DD77A] (AR v2) Copy OK
Track 7
Filename K:\EACrips\Giorgio Moroder - From Here To Eternity ... And Back\07 - Valley Of The Dolls.wav
Pre-gap length 0:00:01.58
Peak level 77.4 % Extraction speed 6.7 X Track quality 100.0 % Test CRC 88CFAFC1 Copy CRC 88CFAFC1 Accurately ripped (confidence 11) [02E92109] (AR v2) Copy OK
Track 8
Filename K:\EACrips\Giorgio Moroder - From Here To Eternity ... And Back\08 - I Wanna Rock You.wav
Pre-gap length 0:00:02.55
Peak level 79.7 % Extraction speed 6.1 X Track quality 99.9 % Test CRC C161652B Copy CRC C161652B Accurately ripped (confidence 11) [2EF88BC5] (AR v2) Copy OK
Track 9
Filename K:\EACrips\Giorgio Moroder - From Here To Eternity ... And Back\09 - Chase (Remix).wav
Pre-gap length 0:00:03.08
Peak level 65.2 % Extraction speed 7.0 X Track quality 100.0 % Test CRC 3AD4BD99 Copy CRC 3AD4BD99 Accurately ripped (confidence 10) [12B395BF] (AR v2) Copy OK
Track 10
Filename K:\EACrips\Giorgio Moroder - From Here To Eternity ... And Back\10 - Oh What A Night.wav
Pre-gap length 0:00:02.33
Peak level 75.3 % Extraction speed 6.1 X Track quality 99.9 % Test CRC 72D8D6BC Copy CRC 72D8D6BC Accurately ripped (confidence 10) [6EE96F38] (AR v2) Copy OK
Track 11
Filename K:\EACrips\Giorgio Moroder - From Here To Eternity ... And Back\11 - I Wanna Funk With You Tonight.wav
Pre-gap length 0:00:02.68
Peak level 86.6 % Extraction speed 7.6 X Track quality 100.0 % Test CRC 24DCC0AD Copy CRC 24DCC0AD Accurately ripped (confidence 11) [6F6FF307] (AR v2) Copy OK
All tracks accurately ripped
No errors occurred
End of status report
==== Log checksum 0226C65717EA3C7A5B96DB1084E98DC69F50EAE9B62B33A745D7395E8372521D ====

Содержание индексной карты (.CUE)

REM GENRE PopREM DATE 1985REM DISCID B10EC00BREM COMMENT "ExactAudioCopy v1.0b3"PERFORMER "Giorgio Moroder"TITLE "From Here To Eternity ... And Back"FILE "01 - Evolution.wav" WAVE  TRACK 01 AUDIO    TITLE "Evolution"    PERFORMER "Giorgio Moroder"    PREGAP 00:00:33    INDEX 01 00:00:00  TRACK 02 AUDIO    TITLE "From Here To Eternity"    PERFORMER "Giorgio Moroder"    INDEX 00 15:13:57FILE "02 - From Here To Eternity.wav" WAVE    INDEX 01 00:00:00FILE "03 - Faster Than The Speed Of Love.wav" WAVE  TRACK 03 AUDIO    TITLE "Faster Than The Speed Of Love"    PERFORMER "Giorgio Moroder"    INDEX 01 00:00:00FILE "04 - Lost Angeles.wav" WAVE  TRACK 04 AUDIO    TITLE "Lost Angeles"    PERFORMER "Giorgio Moroder"    INDEX 01 00:00:00FILE "05 - Utopia - Me Giorgio.wav" WAVE  TRACK 05 AUDIO    TITLE "Utopia - Me Giorgio"    PERFORMER "Giorgio Moroder"    INDEX 01 00:00:00FILE "06 - From Here To Eternity (Reprise).wav" WAVE  TRACK 06 AUDIO    TITLE "From Here To Eternity (Reprise)"    PERFORMER "Giorgio Moroder"    INDEX 01 00:00:00  TRACK 07 AUDIO    TITLE "Valley Of The Dolls"    PERFORMER "Giorgio Moroder"    INDEX 00 01:45:07FILE "07 - Valley Of The Dolls.wav" WAVE    INDEX 01 00:00:00  TRACK 08 AUDIO    TITLE "I Wanna Rock You"    PERFORMER "Giorgio Moroder"    INDEX 00 10:36:12FILE "08 - I Wanna Rock You.wav" WAVE    INDEX 01 00:00:00  TRACK 09 AUDIO    TITLE "Chase (Remix)"    PERFORMER "Giorgio Moroder"    INDEX 00 06:28:25FILE "09 - Chase (Remix).wav" WAVE    INDEX 01 00:00:00  TRACK 10 AUDIO    TITLE "Oh What A Night"    PERFORMER "Giorgio Moroder"    INDEX 00 04:20:67FILE "10 - Oh What A Night.wav" WAVE    INDEX 01 00:00:00  TRACK 11 AUDIO    TITLE "I Wanna Funk With You Tonight"    PERFORMER "Giorgio Moroder"    INDEX 00 04:55:42FILE "11 - I Wanna Funk With You Tonight.wav" WAVE    INDEX 01 00:00:00

If you like the topic, please click share to help develop our site.

To download the file disable ad blocking, and reload the page.

disable adblock How to disable ad blocking?

Download by magnet link 390 MB Download Torrent

Login using:

Similar topics



   
Current time is: 16-Jun 00:26 :: All times are UTC + 3