Сокровища Европы. Португалия / Trésors D'Europe
Год выпуска: 2017
Страна: Франция
Студия: Roche Productions Et Voyage
Жанр: документальный
Продолжительность: 00:51:03
Перевод: Профессиональный (двухголосый закадровый)
Режиссер: Julien Bur/Жульен Бюр
Описание: Добро пожаловать в Португалию. Эта страна - перекресток между Европой, Африкой и великими просторами Атлантики. Старинные ремёсла, плодородная земля, научные центры, причудливые архипелаги, земля, море, лазурное небо. Всё здесь рассказывает истории о великих открытиях, королях и королевах, о гостеприимном народе, о его культуре и глубокой привязанности к традициям. Мы отправляемся в путешествие, чтобы открыть для себя Португалию и её сказочные сокровища.
Сэмпл: http://multi-up.com/1225360
Тип релиза: HDTVRip 720p
Контейнер: MKV
Видео: AVC, PAL, 1280x720, 16x9, 3984 Кbps, 25fps
Аудио: Русский, AC3, 2Ch, 48KHz, 160 kbps

MediaInfo

ОбщееУникальный идентификатор                 : 322955621990666162067628762072201184606 (0xF2F6FD84F4D34A7B3C8C776AF436455E)Полное имя                               : H:\Сокровища Европы-Португалия (2017TADVEntur).mkvФормат                                   : MatroskaВерсия формата                           : Version 4 / Version 2Размер файла                             : 1,48 ГбайтПродолжительность                        : 51 м. 3 с.Общий поток                              : 4146 Кбит/секДата кодирования                         : UTC 2019-02-28 16:45:45Программа кодирования                    : mkvmerge v31.0.0 ('Dolores In A Shoestand') 64-bitБиблиотека кодирования                   : libebml v1.3.6 + libmatroska v1.4.9
ВидеоИдентификатор : 1Формат : AVCФормат/Информация : Advanced Video CodecПрофиль формата : [email protected]Настройки формата : CABAC / 1 Ref FramesПараметр CABAC формата : ДаПараметр RefFrames формата : 1 кадрПараметр GOP формата : M=1, N=12Идентификатор кодека : V_MPEG4/ISO/AVCПродолжительность : 51 м. 3 с.Битрейт : 3984 Кбит/секШирина : 1280 пикселейВысота : 720 пикселейСоотношение сторон : 16:9Режим частоты кадров : ПостоянныйЧастота кадров : 25,000 кадров/секЦветовое пространство : YUVСубдискретизация насыщенности : 4:2:0Битовая глубина : 8 битТип развёртки : ПрогрессивнаяБит/(Пиксели*Кадры) : 0.173Размер потока : 1,42 Гбайт (96%)Default : ДаForced : Нет
АудиоИдентификатор : 2Формат : AC-3Формат/Информация : Audio Coding 3Идентификатор кодека : A_AC3Продолжительность : 51 м. 3 с.Вид битрейта : ПостоянныйБитрейт : 160 Кбит/секКаналы : 2 каналаРасположение каналов : Front: L RЧастота : 48,0 КГцЧастота кадров : 31,250 кадров/сек (1536 SPF)Битовая глубина : 16 битМетод сжатия : С потерямиРазмер потока : 58,4 Мбайт (4%)Язык : RussianServiceKind/String : Complete MainDefault : ДаForced : Нет

Скриншоты


If you like the topic, please click share to help develop our site.

To download the file disable ad blocking, and reload the page.

disable adblock How to disable ad blocking?

Download by magnet link 1.48 GB Download Torrent

Login using:

Similar topics



   
Current time is: 18-Jul 11:44 :: All times are UTC + 3