Эд Стаффорд - ВыжившийEd Stafford - Left For Dead
-Год выпуска: 2017
Страна: Великобритания
Производство: Betty TV Ltd
Жанр: Документальный, познавательный, природа, путешествия, экстрим
Продолжительность: 6 x ~00:43:50
Режиссёр: Эд Стаффорд (Ed Stafford)
В главной роли: Эд Стаффорд (Ed Stafford)-Перевод: Профессиональный, одноголосый, закадровый
Русские субтитры: нет-Источник: HDTV-запись с телеканала Discovery HD от san007-Описание: 10 дней. Эксперты считают что дольше этого срока в глуши без еды и постоянно в движении человеку не выдержать. Путешественник-экстремал Эд Стаффорд отправляется в самые суровые природные условия на планете, чтобы снова проверить себя на прочность и подвергнуть свои навыки выживания новым испытаниям. В тисках жажды, голода и усталости, без карты, компаса и инструментов, имея при себе лишь камеры для съёмки, Эд должен выжить и за 10 дней добраться до цивилизации несмотря ни на что...-Тип релиза: HDTV 1080i
Контейнер: MKV-Видео: AVC H.264, 1920x1080i (16:9), 50i fps, ~8740 kbps, ~0.16,9 bits/pixel
Аудио 1: Russian, AC3, 48KHz, 5.1 (6 channels), 384 kbps
Аудио 2: English, AC3, 48KHz, 5.1 (6 channels), 384 kbps-Раздача в HDTVRip 720p
Эд Стаффорд: Голое выживание без купюр: HDTV 1080i, HDTVRip 720p
Путешествие в неизвестность с Эдом Стаффордом: HDTV 1080i, HDTVRip 720p

Список эпизодов

Life For Dead - Trailer / Трейлер от телеканала Discovery
E01 Madagascar, The Coastal Mangroves / Прибрежные мангры, Мадагаскар
E02 Bulgaria, The Rhodope Mountains / Родопские горы, Болгария
E03 Mongolia, The Altai Mountains / Алтайские горы, Монголия
E04 Laos, The Annamite Mountains / Аннамские горы, Лаос
E05 Bolivia, The Atacama Desert / Пустыня Атакама, Боливия
E06 Panama, The Darien Gap / Дарьенский пробел, Панама

MediaInfo

General
Format : Matroska
Format version : Version 4 / Version 2
File size : 2.96 GiB
Duration : 43 min 41 s
Overall bit rate mode : Variable
Overall bit rate : 9 704 kb/s
Encoded date : UTC 2018-07-08 10:57:16
Writing application : mkvmerge v7.7.0 ('Six Voices') 64bit
Writing library : libebml v1.3.1 + libmatroska v1.4.2
Video
ID : 1
Format : AVC
Format/Info : Advanced Video Codec
Format profile : [email protected]
Format settings : CABAC / 4 Ref Frames
Format settings, CABAC : Yes
Format settings, ReFrames : 4 frames
Codec ID : V_MPEG4/ISO/AVC
Duration : 43 min 41 s
Bit rate mode : Variable
Bit rate : 8 743 kb/s
Maximum bit rate : 40.0 Mb/s
Width : 1 920 pixels
Height : 1 080 pixels
Display aspect ratio : 16:9
Frame rate mode : Constant
Frame rate : 25.000 FPS
Color space : YUV
Chroma subsampling : 4:2:0
Bit depth : 8 bits
Scan type : MBAFF
Scan type, store method : Interleaved fields
Scan order : Top Field First
Bits/(Pixel*Frame) : 0.169
Stream size : 2.67 GiB (90%)
Default : Yes
Forced : No
Color range : Limited
Color primaries : BT.709
Transfer characteristics : BT.709
Matrix coefficients : BT.709
Audio #1
ID : 2
Format : AC-3
Format/Info : Audio Coding 3
Codec ID : A_AC3
Duration : 43 min 41 s
Bit rate mode : Constant
Bit rate : 384 kb/s
Channel(s) : 6 channels
Channel positions : Front: L C R, Side: L R, LFE
Sampling rate : 48.0 kHz
Frame rate : 31.250 FPS (1536 SPF)
Bit depth : 16 bits
Compression mode : Lossy
Stream size : 120 MiB (4%)
Title : Russian
Language : Russian
Service kind : Complete Main
Default : Yes
Forced : No
Audio #2
ID : 3
Format : AC-3
Format/Info : Audio Coding 3
Codec ID : A_AC3
Duration : 43 min 41 s
Bit rate mode : Constant
Bit rate : 384 kb/s
Channel(s) : 6 channels
Channel positions : Front: L C R, Side: L R, LFE
Sampling rate : 48.0 kHz
Frame rate : 31.250 FPS (1536 SPF)
Bit depth : 16 bits
Compression mode : Lossy
Stream size : 120 MiB (4%)
Title : English
Language : English
Service kind : Complete Main
Default : No
Forced : No

Скриншоты


If you like the topic, please click share to help develop our site.

To download the file disable ad blocking, and reload the page.

disable adblock How to disable ad blocking?

Download by magnet link 16.35 GB Download Torrent

Login using:

Similar topics



   
Current time is: 16-Jun 00:32 :: All times are UTC + 3