Эд Стаффорд - ВыжившийEd Stafford - Left For Dead
-Год выпуска: 2017
Страна: Великобритания
Производство: Betty TV Ltd
Жанр: Документальный, познавательный, природа, путешествия, экстрим
Продолжительность: 6 x ~00:43:50
Режиссёр: Эд Стаффорд (Ed Stafford)
В главной роли: Эд Стаффорд (Ed Stafford)-Перевод: Профессиональный, одноголосый, закадровый
Русские субтитры: нет-Источник записи: Рип с HDTV-записи телеканала Discovery HD.
Автор рипа - san007-Описание: 10 дней. Эксперты считают что дольше этого срока в глуши без еды и постоянно в движении человеку не выдержать. Путешественник-экстремал Эд Стаффорд отправляется в самые суровые природные условия на планете, чтобы снова проверить себя на прочность и подвергнуть свои навыки выживания новым испытаниям. В тисках жажды, голода и усталости, без карты, компаса и инструментов, имея при себе лишь камеры для съёмки, Эд должен выжить и за 10 дней добраться до цивилизации несмотря ни на что...-Тип релиза: HDTVRip 720p
Контейнер: MKV-Видео: AVC H.264, 1280x720p (16:9), 25p fps, ~3900 kbps, ~0.16,9 bits/pixel
Аудио 1: Russian, AC3, 48KHz, 5.1 (6 channels), 384 kbps
Аудио 2: English, AC3, 48KHz, 5.1 (6 channels), 384 kbps-Раздача в HDTV 1080i
Эд Стаффорд: Голое выживание без купюр: HDTV 1080i, HDTVRip 720p
Путешествие в неизвестность с Эдом Стаффордом: HDTV 1080i, HDTVRip 720p

Список эпизодов

Life For Dead - Trailer / Трейлер от телеканала Discovery
E01 Madagascar, The Coastal Mangroves / Прибрежные мангры, Мадагаскар
E02 Bulgaria, The Rhodope Mountains / Родопские горы, Болгария
E03 Mongolia, The Altai Mountains / Алтайские горы, Монголия
E04 Laos, The Annamite Mountains / Аннамские горы, Лаос
E05 Bolivia, The Atacama Desert / Пустыня Атакама, Боливия
E06 Panama, The Darien Gap / Дарьенский пробел, Панама

MediaInfo

General
Format : Matroska
Format version : Version 4 / Version 2
File size : 1.43 GiB
Duration : 43 min 41 s
Overall bit rate : 4 671 kb/s
Writing application : mkvmerge v7.7.0 ('Six Voices') 64bit
Writing library : libebml v1.3.1 + libmatroska v1.4.2
Video
ID : 1
Format : AVC
Format/Info : Advanced Video Codec
Format profile : [email protected]
Format settings : CABAC / 8 Ref Frames
Format settings, CABAC : Yes
Format settings, ReFrames : 8 frames
Codec ID : V_MPEG4/ISO/AVC
Duration : 43 min 41 s
Bit rate : 3 900 kb/s
Width : 1 280 pixels
Height : 720 pixels
Display aspect ratio : 16:9
Frame rate mode : Constant
Frame rate : 25.000 FPS
Color space : YUV
Chroma subsampling : 4:2:0
Bit depth : 8 bits
Scan type : Progressive
Bits/(Pixel*Frame) : 0.169
Stream size : 1.16 GiB (82%)
Writing library : x264 core 152 r2851kMod ba24899
Encoding settings : cabac=1 / ref=8 / deblock=1:-1:-1 / analyse=0x3:0x133 / me=umh / subme=9 / psy=1 / fade_compensate=0.00 / psy_rd=1.00:0.10 / mixed_ref=1 / me_range=24 / chroma_me=1 / trellis=2 / 8x8dct=1 / cqm=0 / deadzone=21,11 / fast_pskip=1 / chroma_qp_offset=-3 / threads=6 / lookahead_threads=1 / sliced_threads=0 / nr=0 / decimate=1 / interlaced=0 / bluray_compat=0 / constrained_intra=0 / bframes=8 / b_pyramid=2 / b_adapt=2 / b_bias=0 / direct=3 / weightb=1 / open_gop=0 / weightp=2 / keyint=250 / keyint_min=25 / scenecut=40 / intra_refresh=0 / rc_lookahead=60 / rc=2pass / mbtree=1 / bitrate=3900 / ratetol=1.0 / qcomp=0.60 / qpmin=0 / qpmax=69 / qpstep=4 / cplxblur=20.0 / qblur=0.5 / ip_ratio=1.40 / aq=1:1.00
Default : Yes
Forced : No
Audio #1
ID : 2
Format : AC-3
Format/Info : Audio Coding 3
Codec ID : A_AC3
Duration : 43 min 41 s
Bit rate mode : Constant
Bit rate : 384 kb/s
Channel(s) : 6 channels
Channel positions : Front: L C R, Side: L R, LFE
Sampling rate : 48.0 kHz
Frame rate : 31.250 FPS (1536 SPF)
Bit depth : 16 bits
Compression mode : Lossy
Stream size : 120 MiB (8%)
Title : Russian
Language : Russian
Service kind : Complete Main
Default : Yes
Forced : No
Audio #2
ID : 3
Format : AC-3
Format/Info : Audio Coding 3
Codec ID : A_AC3
Duration : 43 min 41 s
Bit rate mode : Constant
Bit rate : 384 kb/s
Channel(s) : 6 channels
Channel positions : Front: L C R, Side: L R, LFE
Sampling rate : 48.0 kHz
Frame rate : 31.250 FPS (1536 SPF)
Bit depth : 16 bits
Compression mode : Lossy
Stream size : 120 MiB (8%)
Title : English
Language : English
Service kind : Complete Main
Default : No
Forced : No

Скриншоты


If you like the topic, please click share to help develop our site.

To download the file disable ad blocking, and reload the page.

disable adblock How to disable ad blocking?

Download by magnet link 7.91 GB Download Torrent

Login using:

Similar topics



   
Current time is: 20-Jun 18:05 :: All times are UTC + 3