Бойцовский клуб для животных - лучшее / Animal Fight Club, best of - Сезон 1
Год выпуска: 2018
Страна: США
Студия: National Geographic
Жанр: Документальный
Продолжительность: 00:44:00 x 6
Перевод: Студийный (одноголосый закадровый)
Доп. инфо о переводе: студия Велес
Режиссер: Юлиан Джонс, Тони Ли, Аль Блане / Julian Jones, Tony Lee, Al Blane
Описание: В программе Бойцовский клуб для животных показаны драки между самыми большими, маленькими, злыми и часто очень неожиданными бойцами мира животных. От львов и бегемотов, волков, бизонов и крокодилов, до мельчайших мышей и жуков – соперники происходят из разных уголков света. Животные пускают в ход клыки, когти и бивни, сражаясь друг с другом за пищу, территорию и право на спаривание. В Бойцовском Клубе для Животных вы найдете яркий свет, драму и тестостерон традиционных боев без правил - сериал раскрывает секреты тактики и оружия, которое люди не могут использовать. Здесь нет запрещенных приемов – в дикой природе в ход идет все.
В этом специальном сезоне собраны лучшие моменты за предыдущие 6 сезонов.
Сэмпл: Скачать
Тип релиза: IPTV 1080p
Контейнер: TS
Видео: AVC, 1920x1080, 16:9, 9600 kbps vbr avg, 25 fps
Аудио: RUS, MP2, stereo, 48000 Hz, 192 kbps

MediaInfo

GeneralID                          : 1 (0x1)Complete name               : G:\Video\Animal Fight Club, best of S01 (2018)\S01E04 Нет выхода-No Way Out.tsFormat                      : MPEG-TSFile size                   : 3.18 GiBDuration                    : 44 min 7 sOverall bit rate mode       : VariableOverall bit rate            : 10.3 Mb/s
VideoID : 256 (0x100)Menu ID : 1 (0x1)Format : AVCFormat/Info : Advanced Video CodecFormat profile : [email protected] settings : CABAC / 3 Ref FramesFormat settings, CABAC : YesFormat settings, RefFrames : 3 framesCodec ID : 27Duration : 44 min 7 sBit rate : 9 613 kb/sWidth : 1 920 pixelsHeight : 1 080 pixelsDisplay aspect ratio : 16:9Frame rate : 25.000 FPSColor space : YUVChroma subsampling : 4:2:0Bit depth : 8 bitsScan type : InterlacedScan type, store method : Separated fieldsScan order : Top Field FirstBits/(Pixel*Frame) : 0.185Stream size : 2.96 GiB (93%)Color range : LimitedColor primaries : BT.709Transfer characteristics : BT.709Matrix coefficients : BT.709
AudioID : 257 (0x101)Menu ID : 1 (0x1)Format : MPEG AudioFormat version : Version 1Format profile : Layer 2Codec ID : 3Duration : 44 min 7 sBit rate mode : ConstantBit rate : 192 kb/sChannel(s) : 2 channelsSampling rate : 48.0 kHzCompression mode : LossyDelay relative to video : 14 msStream size : 60.6 MiB (2%)
MenuID : 4096 (0x1000)Menu ID : 1 (0x1)Duration : 44 min 7 sList : 256 (0x100) (AVC) / 257 (0x101) (MPEG Audio)Service name : Service01Service provider : FFmpegService type : digital television

Список серий

01 Заклятые враги-Sworn Enemies
02 Реванш-Grudge Match
03 Зубы и когти-Teeth and Talons
04 Нет выхода-No Way Out
05 Живи и позволь убить-Live and Let Kill
06 Быстрый и мертвый-The Quick & the Dead

Скриншоты


If you like the topic, please click share to help develop our site.

To download the file disable ad blocking, and reload the page.

disable adblock How to disable ad blocking?

Download by magnet link 19.22 GB Download Torrent

Login using:

Similar topics



   
Current time is: 16-Jun 00:34 :: All times are UTC + 3