The Chet Baker Quintet - In Concerto
Жанр: Cool
Носитель: CD
Страна-производитель диска (релиза): Италия
Год издания: 1995
Издатель (лейбл): Nel Jazz
Номер по каталогу: NLJ 0954-2
Аудиокодек: FLAC (*.flac)
Тип рипа: tracks+.cue
Битрейт аудио: lossless
Продолжительность: 00:50:56
Источник: deuteronomio
Наличие сканов в содержимом раздачи: нет
Треклист:
01. This Is Always (Warren-Gordon) - 6:17
02. Ray's Idea (Brown) - 17:32
03. You Don't Know What Love Is (Raye-DePaul) - 5:38
04. Stella by Starlight (Young-Washington) - 12:55
05. Cool Blues (Parker) - 8:34
Состав:
Chet Baker - trumpet, vocals
Jean Louis Chautemps - tenor saxophone
Francy Boland - piano
Eddie de Haas - bass
Charles Saudrais - drums
Recorded in Florence in January 1956.

Лог создания рипа

Exact Audio Copy V1.3 from 2. September 2016
EAC extraction logfile from 17. March 2019, 11:45
The Chet Baker Quintet / In Concerto
Used drive : PIONEER BD-RW BDR-209D Adapter: 1 ID: 0
Read mode : SecureUtilize accurate stream : YesDefeat audio cache : YesMake use of C2 pointers : No
Read offset correction : 667Overread into Lead-In and Lead-Out : NoFill up missing offset samples with silence : YesDelete leading and trailing silent blocks : NoNull samples used in CRC calculations : YesUsed interface : Native Win32 interface for Win NT & 2000Gap handling : Appended to previous track
Used output format : User Defined EncoderSelected bitrate : 1024 kBit/sQuality : HighAdd ID3 tag : NoCommand line compressor : C:\Program Files (x86)\Exact Audio Copy\FLAC\FLAC.EXEAdditional command line options : -8 -V -T "ARTIST=%artist%" -T "TITLE=%title%" -T "ALBUM=%albumtitle%" -T "DATE=%year%" -T "TRACKNUMBER=%tracknr%" -T "GENRE=%genre%" -T "PERFORMER=%albuminterpret%" -T "COMPOSER=%composer%" %haslyrics%--tag-from-file=LYRICS="%lyricsfile%"%haslyrics% -T "ALBUMARTIST=%albumartist%" -T "DISCNUMBER=%cdnumber%" -T "TOTALDISCS=%totalcds%" -T "TOTALTRACKS=%numtracks%" -T "COMMENT=%comment%" %source% -o %dest%
TOC of the extracted CD
Track | Start | Length | Start sector | End sector --------------------------------------------------------- 1 | 0:00.00 | 6:16.45 | 0 | 28244 2 | 6:16.45 | 17:32.05 | 28245 | 107149 3 | 23:48.50 | 5:37.40 | 107150 | 132464 4 | 29:26.15 | 12:54.60 | 132465 | 190574 5 | 42:21.00 | 8:34.00 | 190575 | 229124
Track 1
Filename D:\Music\rip\The Chet Baker Quintet - In Concerto (1995) [FLAC]\01 - This Is Always.wav
Pre-gap length 0:00:02.00
Peak level 97.5 % Extraction speed 5.0 X Track quality 100.0 % Test CRC 4E559F5A Copy CRC 4E559F5A Accurately ripped (confidence 1) [2CEE5C75] (AR v2) Copy OK
Track 2
Filename D:\Music\rip\The Chet Baker Quintet - In Concerto (1995) [FLAC]\02 - Rays Ideas.wav
Peak level 80.5 % Extraction speed 6.4 X Track quality 99.9 % Test CRC 58A9670D Copy CRC 58A9670D Accurately ripped (confidence 1) [F862E764] (AR v2) Copy OK
Track 3
Filename D:\Music\rip\The Chet Baker Quintet - In Concerto (1995) [FLAC]\03 - You Dont Know What Love Is.wav
Peak level 64.5 % Extraction speed 7.2 X Track quality 100.0 % Test CRC 05E775AC Copy CRC 05E775AC Accurately ripped (confidence 1) [190ABFB4] (AR v2) Copy OK
Track 4
Filename D:\Music\rip\The Chet Baker Quintet - In Concerto (1995) [FLAC]\04 - Stella By Starlight.wav
Peak level 55.6 % Extraction speed 8.4 X Track quality 100.0 % Test CRC AD903937 Copy CRC AD903937 Accurately ripped (confidence 1) [780EDB19] (AR v2) Copy OK
Track 5
Filename D:\Music\rip\The Chet Baker Quintet - In Concerto (1995) [FLAC]\05 - Cool Blues.wav
Peak level 93.2 % Extraction speed 8.7 X Track quality 100.0 % Test CRC A8BDB6B4 Copy CRC A8BDB6B4 Accurately ripped (confidence 1) [0CE1409C] (AR v2) Copy OK
All tracks accurately ripped
No errors occurred
End of status report
---- CUETools DB Plugin V2.1.6
[CTDB TOCID: zp3yItnm43ay.ociT3ZEaSTM6cE-] foundSubmit result: zp3yItnm43ay.ociT3ZEaSTM6cE- has been confirmedTrack | CTDB Status 1 | (10/11) Accurately ripped 2 | (10/11) Accurately ripped 3 | (10/11) Accurately ripped 4 | (10/11) Accurately ripped 5 | (11/11) Accurately ripped
==== Log checksum 0B0E3FC50052C99A981C9FE7F1A77FCE3BC1F836C68DD305C177E76B32BF4B90 ====

Содержание индексной карты (.CUE)

REM GENRE JazzREM DATE 1995REM DISCID 400BEF05REM COMMENT "ExactAudioCopy v1.3"PERFORMER "Chet Baker"TITLE "In Concerto"FILE "01 - This Is Always.wav" WAVE  TRACK 01 AUDIO    TITLE "This Is Always"    PERFORMER "Chet Baker"    INDEX 01 00:00:00FILE "02 - Ray's Idea.wav" WAVE  TRACK 02 AUDIO    TITLE "Ray's Idea"    PERFORMER "Chet Baker"    INDEX 01 00:00:00FILE "03 - You Don't Know What Love Is.wav" WAVE  TRACK 03 AUDIO    TITLE "You Don't Know What Love Is"    PERFORMER "Chet Baker"    INDEX 01 00:00:00FILE "04 - Stella by Starlight.wav" WAVE  TRACK 04 AUDIO    TITLE "Stella by Starlight"    PERFORMER "Chet Baker"    INDEX 01 00:00:00FILE "05 - Cool Blues.wav" WAVE  TRACK 05 AUDIO    TITLE "Cool Blues"    PERFORMER "Chet Baker"    INDEX 01 00:00:00

Отчет CUETools

[CUETools log; Date: 17.03.2019 22:39:56; Version: 2.1.6][CTDB TOCID: zp3yItnm43ay.ociT3ZEaSTM6cE-] found.Track | CTDB Status  1   | (11/12) Accurately ripped  2   | (11/12) Accurately ripped  3   | (11/12) Accurately ripped  4   | (11/12) Accurately ripped  5   | (12/12) Accurately ripped[AccurateRip ID: 000a7dc8-00315e62-400bef05] found.Track   [  CRC   |   V2   ] Status 01     [f39cccff|2cee5c75] (1+1/3) Accurately ripped 02     [b5009d66|f862e764] (1+1/3) Accurately ripped 03     [b115b3ec|190abfb4] (1+1/3) Accurately ripped 04     [3ad758a1|780edb19] (1+1/3) Accurately ripped 05     [9b784ed4|0ce1409c] (1+1/3) Accurately ripped
Track Peak [ CRC32 ] [W/O NULL] [ LOG ] -- 97,5 [374AFD8D] [2AC238F0] 01 97,5 [4E559F5A] [0AC046E0] CRC32 02 80,5 [58A9670D] [6587E1BA] CRC32 03 64,5 [05E775AC] [AF674765] CRC32 04 55,6 [AD903937] [27A61210] CRC32 05 93,2 [A8BDB6B4] [EDC84990] CRC32

AllMusic Review by Matt Collar

Despite its muddy sound quality,Live in Europe 1956 is a stellar Chet Baker recording made in Florence, Italy, with talented European sidemen, including Jean-Louis Chautemps on tenor saxophone, Francy Boland on piano, Eddie De Haas on bass, and Charles Saudrais on drums. Recorded a few months after the death of new sideman and rising jazz pianist Dick Twardzick from a heroin overdose, the album shows little evidence of Baker's own addiction. Twardzick's demise threatened to end the tour, but the trumpeter continued to perform many concerts like the one heard here. The set begins with a haunting vocal version of "This Is Always," a standard not often performed by Baker and a must-hear for aficionados. Some technical trumpet "fracks," as they are known, do little to mar his solo on the tune, and instead showcase the artist's graceful ability to turn a mistake into a beautiful line. Ray Brown's up-tempo bop standard "Ray's Idea" continues the set, allowing Baker to prove he can lay down bop lines with the best of them and still sound devastatingly melodic. At the end of the concert you hear him address the crowd in his characteristic boy-next-door voice, belying the dark and tragic elements that would soon propel him into obscurity. Live in Europe 1956 (also available as Cool Way to Florence on Oscar Records) is a melancholy time capsule which evokes images of Baker as the stylish, talented, and self-destructive cover boy he was during the '50s.

If you like the topic, please click share to help develop our site.

To download the file disable ad blocking, and reload the page.

disable adblock How to disable ad blocking?

Download by magnet link 175 MB Download Torrent

Login using:

Similar topics



   
Current time is: 20-Jun 18:01 :: All times are UTC + 3