Joanne Shaw TaylorReckless Heart -
Жанр: modern electric blues, blues rock
Носитель: CD
Страна-производитель диска: E.U.
Год издания: 2019
Издатель (лейбл): Sony Music Entertainment
Номер по каталогу: 19075892172
Страна: USA
Аудиокодек: FLAC (*.flac)
Тип рипа: image+.cue
Битрейт аудио: lossless
Продолжительность: 46'51"
Источник (релизер): собственный диск
Наличие сканов в содержимом раздачи: 600 dpi, JPG
-Треклист:

01. In the Mood (3:45)
02. All My Love (3:38)
03. The Best Thing (4:52)
04. Bad Love (4:07)
05. Creepin' (3:41)
06. I've Been Loving You Too Long (6:37)
07. Reckless Heart (4:28)
08. Break My Heart Anyway (3:23)
09. New 89 (3:48)
10. Jake's Boogie (3:03)
11. I'm Only Lonely (5:28)
-

xld

X Lossless Decoder version 20181019 (151.1)
XLD extraction logfile from 2019-03-17 11:28:44 +0000
Joanne Shaw Taylor / Reckless Heart
Used drive : ASUS SDRW-08D2S-U (revision A801)Media type : Pressed CD
Ripper mode : XLD Secure RipperDisable audio cache : OK for the drive with a cache less than 1375KiBMake use of C2 pointers : NORead offset correction : 6Max retry count : 20Gap status : Analyzed, Appended
TOC of the extracted CD Track | Start | Length | Start sector | End sector --------------------------------------------------------- 1 | 00:00:00 | 03:45:09 | 0 | 16883 2 | 03:45:09 | 03:38:14 | 16884 | 33247 3 | 07:23:23 | 04:52:27 | 33248 | 55174 4 | 12:15:50 | 04:07:30 | 55175 | 73729 5 | 16:23:05 | 03:41:32 | 73730 | 90336 6 | 20:04:37 | 06:37:10 | 90337 | 120121 7 | 26:41:47 | 04:28:09 | 120122 | 140230 8 | 31:09:56 | 03:22:62 | 140231 | 155442 9 | 34:32:43 | 03:47:69 | 155443 | 172536 10 | 38:20:37 | 03:02:48 | 172537 | 186234 11 | 41:23:10 | 05:28:31 | 186235 | 210865
AccurateRip Summary Disc not found in AccurateRip DB.
All Tracks Filename : /Volumes/DATA/Audio/SWF/2019. Joanne Shaw Taylor - Reckless Heart (2019 Sony Music Entertainment, 19075892172, E.U.)/Reckless Heart.flac Album gain : -8.99 dB Peak : 0.988495 CRC32 hash (test run) : A549B74A CRC32 hash : A549B74A CRC32 hash (skip zero) : 60EC8232 Statistics Read error : 0 Jitter error (maybe fixed) : 0 Retry sector count : 0 Damaged sector count : 0
Track 01 Pre-gap length : 00:02:00
Track gain : -10.84 dB Peak : 0.988495 CRC32 hash (test run) : 02ED95CE CRC32 hash : 02ED95CE CRC32 hash (skip zero) : 14AA71D7 AccurateRip v1 signature : 212563E6 AccurateRip v2 signature : 12823DA1 ->Track not present in AccurateRip database. Statistics Read error : 0 Jitter error (maybe fixed) : 0 Retry sector count : 0 Damaged sector count : 0
Track 02
Track gain : -9.59 dB Peak : 0.988495 CRC32 hash (test run) : 03457743 CRC32 hash : 03457743 CRC32 hash (skip zero) : 2BFA1DEE AccurateRip v1 signature : 4AFF54CB AccurateRip v2 signature : 5433103B ->Track not present in AccurateRip database. Statistics Read error : 0 Jitter error (maybe fixed) : 0 Retry sector count : 0 Damaged sector count : 0
Track 03
Track gain : -8.30 dB Peak : 0.988495 CRC32 hash (test run) : 2FA8DD01 CRC32 hash : 2FA8DD01 CRC32 hash (skip zero) : 6BE94709 AccurateRip v1 signature : C2DA5925 AccurateRip v2 signature : E8EDD2CF ->Track not present in AccurateRip database. Statistics Read error : 0 Jitter error (maybe fixed) : 0 Retry sector count : 0 Damaged sector count : 0
Track 04
Track gain : -10.70 dB Peak : 0.988495 CRC32 hash (test run) : 3DE45BA7 CRC32 hash : 3DE45BA7 CRC32 hash (skip zero) : EF02C192 AccurateRip v1 signature : 213B7504 AccurateRip v2 signature : A035FD23 ->Track not present in AccurateRip database. Statistics Read error : 0 Jitter error (maybe fixed) : 0 Retry sector count : 0 Damaged sector count : 0
Track 05
Track gain : -10.04 dB Peak : 0.988495 CRC32 hash (test run) : 9B4060F5 CRC32 hash : 9B4060F5 CRC32 hash (skip zero) : E6B5CF71 AccurateRip v1 signature : EA9734B5 AccurateRip v2 signature : 77577627 ->Track not present in AccurateRip database. Statistics Read error : 0 Jitter error (maybe fixed) : 0 Retry sector count : 0 Damaged sector count : 0
Track 06
Track gain : -8.93 dB Peak : 0.988495 CRC32 hash (test run) : 7793136F CRC32 hash : 7793136F CRC32 hash (skip zero) : 06DD462E AccurateRip v1 signature : 7489715D AccurateRip v2 signature : 56A51F78 ->Track not present in AccurateRip database. Statistics Read error : 0 Jitter error (maybe fixed) : 0 Retry sector count : 0 Damaged sector count : 0
Track 07
Track gain : -7.86 dB Peak : 0.988495 CRC32 hash (test run) : 57CD56EC CRC32 hash : 57CD56EC CRC32 hash (skip zero) : F369BE9B AccurateRip v1 signature : E7255AEA AccurateRip v2 signature : 95B1D653 ->Track not present in AccurateRip database. Statistics Read error : 0 Jitter error (maybe fixed) : 0 Retry sector count : 0 Damaged sector count : 0
Track 08
Track gain : -7.39 dB Peak : 0.988495 CRC32 hash (test run) : 5F90917A CRC32 hash : 5F90917A CRC32 hash (skip zero) : C411FCE6 AccurateRip v1 signature : 37D4492E AccurateRip v2 signature : 66B50B6D ->Track not present in AccurateRip database. Statistics Read error : 0 Jitter error (maybe fixed) : 0 Retry sector count : 0 Damaged sector count : 0
Track 09
Track gain : -9.17 dB Peak : 0.988495 CRC32 hash (test run) : 05BAFD66 CRC32 hash : 05BAFD66 CRC32 hash (skip zero) : F42EEFF3 AccurateRip v1 signature : 07C28904 AccurateRip v2 signature : B8715AAE ->Track not present in AccurateRip database. Statistics Read error : 0 Jitter error (maybe fixed) : 0 Retry sector count : 0 Damaged sector count : 0
Track 10
Track gain : -3.53 dB Peak : 0.966919 CRC32 hash (test run) : 3D6D33AA CRC32 hash : 3D6D33AA CRC32 hash (skip zero) : FB5739FE AccurateRip v1 signature : 3691B8BA AccurateRip v2 signature : E13EC432 ->Track not present in AccurateRip database. Statistics Read error : 0 Jitter error (maybe fixed) : 0 Retry sector count : 0 Damaged sector count : 0
Track 11
Track gain : -6.47 dB Peak : 0.988495 CRC32 hash (test run) : 0CB7D083 CRC32 hash : 0CB7D083 CRC32 hash (skip zero) : 724005C5 AccurateRip v1 signature : 8FF74101 AccurateRip v2 signature : DBC1AEFF ->Track not present in AccurateRip database. Statistics Read error : 0 Jitter error (maybe fixed) : 0 Retry sector count : 0 Damaged sector count : 0
No errors occurred
End of status report
-----BEGIN XLD SIGNATURE-----Frf344sa23.2H48ppn1w6zFYS4RqEHGdjrfGW_1Nfh6oKPaI0iyaLQ7eZSGGYRxPf9IhJgE4pYiZDfTdgzFl2c0CCKPOVISo1AvnfaS-----END XLD SIGNATURE-----
-

.cue

TITLE "Reckless Heart"PERFORMER "Joanne Shaw Taylor"CATALOG 0190758921723REM GENRE "Blues"REM DATE "2019"REM DISCID 8C0AFB0BREM REPLAYGAIN_ALBUM_GAIN -8.99 dBREM REPLAYGAIN_ALBUM_PEAK 0.988495FILE "Reckless Heart.flac" WAVE  TRACK 01 AUDIO    TITLE "In The Mood"    PERFORMER "Joanne Shaw Taylor"    ISRC GBARL1801448    REM REPLAYGAIN_TRACK_GAIN -10.84 dB    REM REPLAYGAIN_TRACK_PEAK 0.988495    INDEX 01 00:00:00  TRACK 02 AUDIO    TITLE "All My Love"    PERFORMER "Joanne Shaw Taylor"    ISRC GBARL1801449    REM REPLAYGAIN_TRACK_GAIN -9.59 dB    REM REPLAYGAIN_TRACK_PEAK 0.988495    INDEX 01 03:45:09  TRACK 03 AUDIO    TITLE "The Best Thing"    PERFORMER "Joanne Shaw Taylor"    ISRC GBARL1801450    REM REPLAYGAIN_TRACK_GAIN -8.30 dB    REM REPLAYGAIN_TRACK_PEAK 0.988495    INDEX 01 07:23:23  TRACK 04 AUDIO    TITLE "Bad Love"    PERFORMER "Joanne Shaw Taylor"    ISRC GBARL1801451    REM REPLAYGAIN_TRACK_GAIN -10.70 dB    REM REPLAYGAIN_TRACK_PEAK 0.988495    INDEX 01 12:15:50  TRACK 05 AUDIO    TITLE "Creepin'"    PERFORMER "Joanne Shaw Taylor"    ISRC GBARL1801452    REM REPLAYGAIN_TRACK_GAIN -10.04 dB    REM REPLAYGAIN_TRACK_PEAK 0.988495    INDEX 01 16:23:05  TRACK 06 AUDIO    TITLE "I've Been Loving You Too Long"    PERFORMER "Joanne Shaw Taylor"    ISRC GBARL1801453    REM REPLAYGAIN_TRACK_GAIN -8.93 dB    REM REPLAYGAIN_TRACK_PEAK 0.988495    INDEX 01 20:04:37  TRACK 07 AUDIO    TITLE "Reckless Heart"    PERFORMER "Joanne Shaw Taylor"    ISRC GBARL1801454    REM REPLAYGAIN_TRACK_GAIN -7.86 dB    REM REPLAYGAIN_TRACK_PEAK 0.988495    INDEX 01 26:41:47  TRACK 08 AUDIO    TITLE "Break My Heart Anyway"    PERFORMER "Joanne Shaw Taylor"    ISRC GBARL1801455    REM REPLAYGAIN_TRACK_GAIN -7.39 dB    REM REPLAYGAIN_TRACK_PEAK 0.988495    INDEX 01 31:09:56  TRACK 09 AUDIO    TITLE "New 89"    PERFORMER "Joanne Shaw Taylor"    ISRC GBARL1801456    REM REPLAYGAIN_TRACK_GAIN -9.17 dB    REM REPLAYGAIN_TRACK_PEAK 0.988495    INDEX 01 34:32:43  TRACK 10 AUDIO    TITLE "Jake's Boogie"    PERFORMER "Joanne Shaw Taylor"    ISRC GBARL1801457    REM REPLAYGAIN_TRACK_GAIN -3.53 dB    REM REPLAYGAIN_TRACK_PEAK 0.966919    INDEX 01 38:20:37  TRACK 11 AUDIO    TITLE "I'm Only Lonely"    PERFORMER "Joanne Shaw Taylor"    ISRC GBARL1801458    REM REPLAYGAIN_TRACK_GAIN -6.47 dB    REM REPLAYGAIN_TRACK_PEAK 0.988495    INDEX 01 41:23:10
-

matrix

-

If you like the topic, please click share to help develop our site.

To download the file disable ad blocking, and reload the page.

disable adblock How to disable ad blocking?

Download by magnet link 503 MB Download Torrent

Login using:

Similar topics

[Quote]
Thanks a lot for her new release


   
Current time is: 20-Jun 18:17 :: All times are UTC + 3