Chris Rea - The Best Of Chris Rea (1993)- Жанр: Rock, Blues
Носитель: CD
Страна-производитель диска (релиза): Bulgaria
Год издания: 1993
Издатель (лейбл): Not On Label
Номер по каталогу: 7566-94318-1
Аудиокодек: FLAC (*.flac)
Тип рипа: image+.cue
Битрейт аудио: lossless
Продолжительность: 00:48:34
Источник: собственный рип
Наличие сканов в содержимом раздачи: да-Треклист:
01. The Road To Hell ( Part II)
02. Looking For The Summer
03. 90's Blues
04. Working On It
05. Auberge
06. I Just Wanna Be With You
07. There She Goes
08. Josephine
09. That's What They Always Say
10. God's Great Banana Skin
11. Sing A Song Of Love To Me
12. Your Warm And Tender Love
13. And You My Love
14. Nothing To fear
-

Лог создания рипа

Exact Audio Copy V1.0 beta 3 from 29. August 2011
Отчёт EAC об извлечении, выполненном 3. февраля 2019, 21:50
Chris Rea / The Best Of Chris Rea
Дисковод: SONY CD-RW CRX230ED Adapter: 2 ID: 1
Режим чтения : ДостоверностьИспользование точного потока : ДаОтключение кэша аудио : ДаИспользование указателей C2 : Нет
Коррекция смещения при чтении : 6Способность читать области Lead-in и Lead-out : НетЗаполнение пропущенных сэмплов тишиной : ДаУдаление блоков с тишиной в начале и конце : НетПри вычислениях CRC использовались нулевые сэмплы : ДаИнтерфейс : Встроенный Win32-интерфейс для Win NT/2000
Выходной формат : Пользовательский кодировщикВыбранный битрейт : 1024 kBit/sКачество : ВысокийДобавление ID3-тега : НетУтилита сжатия : C:\Program Files\FLAC\flac.exeДополнительные параметры : -V -8 -T "Date=%year%" -T "Genre=%genre%" %source%
TOC извлечённого CD
Трек | Старт | Длительность | Начальный сектор | Конечный сектор --------------------------------------------------------------------- 1 | 0:00.00 | 4:32.05 | 0 | 20404 2 | 4:32.05 | 5:03.50 | 20405 | 43179 3 | 9:35.55 | 5:07.33 | 43180 | 66237 4 | 14:43.13 | 4:25.67 | 66238 | 86179 5 | 19:09.05 | 7:18.50 | 86180 | 119079 6 | 26:27.55 | 3:41.28 | 119080 | 135682 7 | 30:09.08 | 4:34.70 | 135683 | 156302 8 | 34:44.03 | 4:35.45 | 156303 | 176972 9 | 39:19.48 | 4:27.52 | 176973 | 197049 10 | 43:47.25 | 5:19.58 | 197050 | 221032 11 | 49:07.08 | 3:33.45 | 221033 | 237052 12 | 52:40.53 | 4:33.10 | 237053 | 257537 13 | 57:13.63 | 5:30.62 | 257538 | 282349 14 | 62:44.50 | 9:12.63 | 282350 | 323812
Характеристики диапазона извлечения и сообщения об ошибках
Выбранный диапазон
Имя файла F:\Chris Rea - The Best Of Chris Rea [CD] (lossless)\Chris Rea - The Best Of Chris Rea.wav
Пиковый уровень 100.0 % Скорость извлечения 6.2 X Качество диапазона 100.0 % CRC теста 576B3884 CRC копии 576B3884 Копирование... OK
Ошибок не произошло
AccurateRip: сводка
Трек 1 : извлечено точно (доверие 2) [697D45C2] (AR v2)Трек 2 : извлечено точно (доверие 2) [6F590771] (AR v2)Трек 3 : извлечено точно (доверие 2) [5DA13F03] (AR v2)Трек 4 : извлечено точно (доверие 2) [3E41F79A] (AR v2)Трек 5 : извлечено точно (доверие 2) [76D91BCF] (AR v2)Трек 6 : извлечено точно (доверие 2) [2DC2ACC7] (AR v2)Трек 7 : извлечено точно (доверие 2) [EF0BE075] (AR v2)Трек 8 : извлечено точно (доверие 2) [1943372F] (AR v2)Трек 9 : извлечено точно (доверие 2) [C20B4DD6] (AR v2)Трек 10 точность не определена (достоверность 2) [D0D5101F], AccurateRip вернул [9CE3BFC4] (AR v2)Трек 11 точность не определена (достоверность 2) [55767270], AccurateRip вернул [E72757E2] (AR v2)Трек 12 : извлечено точно (доверие 2) [A9502C21] (AR v2)Трек 13 : извлечено точно (доверие 2) [A769F232] (AR v2)Трек 14 : извлечено точно (доверие 2) [AE4068F0] (AR v2)
12 трек(и) скопированы точно 2 трек(и) не удалось проверить на точность
Некоторые треки не прошли проверку на точность
Конец отчёта
==== Контрольная сумма отчёта 07EE7A6CFE8EFCB9131F60AC9A8138782ACA40EA36040550A0BAB1202B2C1083 ====

Содержание индексной карты (.CUE)

REM GENRE RockREM DATE 1993REM DISCID D910DD0EREM COMMENT "ExactAudioCopy v1.0b3"PERFORMER "Chris Rea"TITLE "The Best Of Chris Rea"FILE "Chris Rea - The Best Of Chris Rea.flac" WAVE  TRACK 01 AUDIO    TITLE "The Road To Hell ( Part II)"    PERFORMER "Chris Rea"    INDEX 01 00:00:00  TRACK 02 AUDIO    TITLE "Looking For The Summer"    PERFORMER "Chris Rea"    INDEX 00 04:30:63    INDEX 01 04:32:05  TRACK 03 AUDIO    TITLE "90's Blues"    PERFORMER "Chris Rea"    INDEX 00 09:34:10    INDEX 01 09:35:55  TRACK 04 AUDIO    TITLE "Working On It"    PERFORMER "Chris Rea"    INDEX 00 14:41:25    INDEX 01 14:43:13  TRACK 05 AUDIO    TITLE "Auberge"    PERFORMER "Chris Rea"    INDEX 00 19:07:30    INDEX 01 19:09:05  TRACK 06 AUDIO    TITLE "I Just Wanna Be With You"    PERFORMER "Chris Rea"    INDEX 00 26:25:45    INDEX 01 26:27:55  TRACK 07 AUDIO    TITLE "There She Goes"    PERFORMER "Chris Rea"    INDEX 00 30:07:45    INDEX 01 30:09:08  TRACK 08 AUDIO    TITLE "Josephine"    PERFORMER "Chris Rea"    INDEX 00 34:42:03    INDEX 01 34:44:03  TRACK 09 AUDIO    TITLE "that's What They Always Say"    PERFORMER "Chris Rea"    INDEX 00 39:18:03    INDEX 01 39:19:48  TRACK 10 AUDIO    TITLE "God's Great Banana Skin"    PERFORMER "Chris Rea"    INDEX 00 43:46:61    INDEX 01 43:47:25  TRACK 11 AUDIO    TITLE "Sing A Song Of Love To Me"    PERFORMER "Chris Rea"    INDEX 00 49:06:10    INDEX 01 49:07:08  TRACK 12 AUDIO    TITLE "Your Warm And Tender Love"    PERFORMER "Chris Rea"    INDEX 00 52:39:63    INDEX 01 52:40:53  TRACK 13 AUDIO    TITLE "And You My Love"    PERFORMER "Chris Rea"    INDEX 00 57:13:15    INDEX 01 57:13:63  TRACK 14 AUDIO    TITLE "Nothing To fear"    PERFORMER "Chris Rea"    INDEX 00 62:42:58    INDEX 01 62:44:50

Лог проверки качества

-----------------------
DON'T MODIFY THIS FILE
-----------------------
PERFORMER: auCDtect Task Manager, ver. 1.6.0 RC1 build 1.6.0.1Copyright (c) 2008-2010 y-soft. All rights reservedhttp://y-soft.org
ANALYZER: auCDtect: CD records authenticity detector, version 0.8.2Copyright (c) 2004 Oleg Berngardt. All rights reserved.Copyright (c) 2004 Alexander Djourik. All rights reserved.
FILE: Chris Rea - The Best Of Chris Rea.flac Size: 455812971 Hash: 498A01F68C9A730D995F06DA84F34DCD Accuracy: -m0 Conclusion: CDDA 100% Signature: D6579DD7C2A2087376AAE3E2583DC123B29318BE

Dynamic Range Meter (DR12):

foobar2000 1.1.3 / Dynamic Range Meter 1.1.1log date: 2019-03-05 12:38:31
--------------------------------------------------------------------------------Analyzed: Chris Rea / The Best Of Chris Rea--------------------------------------------------------------------------------
DR Peak RMS Duration Track--------------------------------------------------------------------------------DR10 -0.94 dB -12.38 dB 4:32 ?-The Road To Hell ( Part II)DR11 -0.29 dB -14.07 dB 5:04 ?-Looking For The SummerDR13 -0.40 dB -17.75 dB 5:07 ?-90's BluesDR12 0.00 dB -14.81 dB 4:26 ?-Working On ItDR11 -0.32 dB -15.02 dB 7:19 ?-AubergeDR12 -0.78 dB -13.97 dB 3:41 ?-I Just Wanna Be With YouDR12 -0.68 dB -15.63 dB 4:35 ?-There She GoesDR13 -0.26 dB -15.16 dB 4:36 ?-JosephineDR10 -0.77 dB -12.15 dB 4:28 ?-that's What They Always SayDR13 0.00 dB -15.06 dB 5:20 ?-God's Great Banana SkinDR12 -0.28 dB -15.90 dB 3:34 ?-Sing A Song Of Love To MeDR11 -0.71 dB -14.46 dB 4:33 ?-Your Warm And Tender LoveDR11 0.00 dB -13.00 dB 5:31 ?-And You My LoveDR13 -0.15 dB -17.67 dB 9:13 ?-Nothing To fear--------------------------------------------------------------------------------
Number of tracks: 14Official DR value: DR12
Samplerate: 44100 HzChannels: 2Bits per sample: 16Bitrate: 845 kbpsCodec: FLAC================================================================================

Скриншот спектра частот

Covers:




If you like the topic, please click share to help develop our site.

To download the file disable ad blocking, and reload the page.

disable adblock How to disable ad blocking?

Download by magnet link 457 MB Download Torrent

Login using:

Similar topics



   
Current time is: 15-Jun 23:31 :: All times are UTC + 3