Nasty Idols

ϟ Collections ϟ

Жанр: Hard Rock | Sleazy Glam
Носитель: CD
Год издания: 1991 - 2012
Страна исполнителя (группы): Sweden
Аудиокодек: FLAC (*.flac)
Тип рипа: image+.cue
Битрейт аудио: lossless
Источник: Kantor1975 (его CDs & рипы / по просьбе)
Наличие сканов в содержимом раздачи: да
Nasty Idols

1991 (2006) [Remastered] | Cruel Intention | Swedmetal Records ‎(SM-08-CD) | 50:31

Треклист
01. The Way Ya Walk (4:38)
02. Cool Way Of Living (3:22)
03. American Nights (3:50)
04. Dont Tear It Down (3:47)
05. Alive N Kickin (4:08)
06. House Of Rock N Roll (4:18)
07. B_I_T_C_H (3:52)
08. Cant Get Ya Off My Mind (5:13)
09. Devil In Disguise (5:12)
10. Westcoast City Rockers (3:26)
11. Trashed And Dirty (4:16)
12. Cant Get Ya Off My Mind 2 (4:29)

Лог создания рипа

Exact Audio Copy V1.3 from 2. September 2016
Отчёт EAC об извлечении, выполненном 9. марта 2019, 13:51
Nasty Idols / Cruel Intention
Дисковод: ASUS DRW-2014S1T Adapter: 2 ID: 1
Режим чтения : ДостоверностьИспользование точного потока : ДаОтключение кэша аудио : ДаИспользование указателей C2 : Нет
Коррекция смещения при чтении : 6Способность читать области Lead-in и Lead-out : НетЗаполнение пропущенных сэмплов тишиной : ДаУдаление блоков с тишиной в начале и конце : НетПри вычислениях CRC использовались нулевые сэмплы : ДаИнтерфейс : Установленный внешний ASPI-интерфейс
Выходной формат : Пользовательский кодировщикВыбранный битрейт : 128 kBit/sКачество : ВысокийДобавление ID3-тега : НетУтилита сжатия : C:\Program Files\Exact Audio Copy\Flac\flac.exeДополнительные параметры : -V -8 -T "Date=%year%" -T "Genre=%genre%" %source%
TOC извлечённого CD
Трек | Старт | Длительность | Начальный сектор | Конечный сектор --------------------------------------------------------------------- 1 | 0:00.00 | 4:37.55 | 0 | 20829 2 | 4:37.55 | 3:22.37 | 20830 | 36016 3 | 8:00.17 | 3:50.18 | 36017 | 53284 4 | 11:50.35 | 3:47.12 | 53285 | 70321 5 | 15:37.47 | 4:07.40 | 70322 | 88886 6 | 19:45.12 | 4:17.50 | 88887 | 108211 7 | 24:02.62 | 3:52.03 | 108212 | 125614 8 | 27:54.65 | 5:13.22 | 125615 | 149111 9 | 33:08.12 | 5:12.18 | 149112 | 172529 10 | 38:20.30 | 3:25.47 | 172530 | 187951 11 | 41:46.02 | 4:16.30 | 187952 | 207181 12 | 46:02.32 | 4:28.45 | 207182 | 227326
Характеристики диапазона извлечения и сообщения об ошибках
Выбранный диапазон
Имя файла D:\Nasty Idols - Cruel Intention.wav
Пиковый уровень 100.0 % Скорость извлечения 7.2 X Качество диапазона 100.0 % CRC теста 15FB574A CRC копии 15FB574A Копирование... OK
Ошибок не произошло
AccurateRip: сводка
Трек 1 точность не определена (достоверность 1) [CA1AFE21], AccurateRip вернул [1C094427] (AR v2)Трек 2 точность не определена (достоверность 1) [9955E124], AccurateRip вернул [6B13BED1] (AR v2)Трек 3 точность не определена (достоверность 1) [6DA18260], AccurateRip вернул [305B65AC] (AR v2)Трек 4 точность не определена (достоверность 1) [E2E7222A], AccurateRip вернул [60FB3C4B] (AR v2)Трек 5 точность не определена (достоверность 1) [A7971734], AccurateRip вернул [4B1E92A3] (AR v2)Трек 6 точность не определена (достоверность 1) [705EC850], AccurateRip вернул [F8E2E29F] (AR v2)Трек 7 точность не определена (достоверность 1) [BA6535D0], AccurateRip вернул [2B512C0D] (AR v2)Трек 8 точность не определена (достоверность 1) [47DAE573], AccurateRip вернул [6FE12E85] (AR v2)Трек 9 точность не определена (достоверность 1) [3244270B], AccurateRip вернул [B87D248A] (AR v2)Трек 10 точность не определена (достоверность 1) [D8382A3F], AccurateRip вернул [B3319DBD] (AR v2)Трек 11 точность не определена (достоверность 1) [5BF9F55C], AccurateRip вернул [12C417C1] (AR v2)Трек 12 точность не определена (достоверность 1) [1041C731], AccurateRip вернул [8F3607C7] (AR v2)
Ни один трек не прошёл проверки на точностьВ вашей базе может быть иной вариант штамповки диска
Конец отчёта
---- CUETools DB Plugin V2.1.6
[CTDB TOCID: 1Dxjkbn_Q4qFnu0d3j9d2BBP31E-] foundSubmit result: 1Dxjkbn_Q4qFnu0d3j9d2BBP31E- has been confirmedTrack | CTDB Status 1 | (5/5) Accurately ripped 2 | (5/5) Accurately ripped 3 | (5/5) Accurately ripped 4 | (5/5) Accurately ripped 5 | (5/5) Accurately ripped 6 | (5/5) Accurately ripped 7 | (5/5) Accurately ripped 8 | (5/5) Accurately ripped 9 | (5/5) Accurately ripped 10 | (5/5) Accurately ripped 11 | (5/5) Accurately ripped 12 | (5/5) Accurately ripped
==== Контрольная сумма отчёта BE66DA16F60442696EB2B495BA8C14B6430C1F134F862F296295A2A2F3E99BD7 ====

Лог DRM

foobar2000 1.2.9 / Dynamic Range Meter 1.1.1log date: 2019-03-15 22:49:20
--------------------------------------------------------------------------------Analyzed: Nasty Idols / Cruel Intention--------------------------------------------------------------------------------
DR Peak RMS Duration Track--------------------------------------------------------------------------------DR14 0.00 dB -15.87 dB 4:38 01-The Way Ya WalkDR13 0.00 dB -14.04 dB 3:22 02-Cool Way Of LivingDR13 0.00 dB -13.54 dB 3:50 03-American NightsDR13 0.00 dB -14.16 dB 3:47 04-Dont Tear It DownDR12 0.00 dB -13.32 dB 4:08 05-Alive N KickinDR12 0.00 dB -13.93 dB 4:18 06-House Of Rock N RollDR13 0.00 dB -14.12 dB 3:52 07-B_I_T_C_HDR12 0.00 dB -15.59 dB 5:13 08-Cant Get Ya Off My MindDR12 0.00 dB -13.76 dB 5:12 09-Devil In DisguiseDR12 0.00 dB -13.06 dB 3:26 10-Westcoast City RockersDR13 0.00 dB -13.79 dB 4:16 11-Trashed And DirtyDR13 -2.19 dB -18.77 dB 4:29 12-Cant Get Ya Off My Mind 2--------------------------------------------------------------------------------
Number of tracks: 12Official DR value: DR13
Samplerate: 44100 HzChannels: 2Bits per sample: 16Bitrate: 969 kbpsCodec: FLAC================================================================================

1993 (2006) [Remastered] | Vicious | Swedmetal Records ‎(SM-09-CD) | 50:17

Треклист:
01. Head's Down (In Tinseltown) (4:02)
02. Hellhouse (3:13)
03. Dance Of The Wicked (3:30)
04. Ain.t Got Nothing (3:48)
05. R.I.P (4:02)
06. Pretty Cut Wild (4:22)
07. Blackshot (3:06)
08. No Time (5:22)
09. Killing Stuff (3:14)
10. Do You Want Another (3:18)
11. Hellout Shakeout (3:32)
12. Electric Wonderland (4:48)
13. Over N.Gone (3:59)

Лог создания рипа

Exact Audio Copy V1.3 from 2. September 2016
Отчёт EAC об извлечении, выполненном 28. февраля 2019, 17:03
Nasty Idols / Vicious
Дисковод: ASUS DRW-2014S1T Adapter: 2 ID: 1
Режим чтения : ДостоверностьИспользование точного потока : ДаОтключение кэша аудио : ДаИспользование указателей C2 : Нет
Коррекция смещения при чтении : 6Способность читать области Lead-in и Lead-out : НетЗаполнение пропущенных сэмплов тишиной : ДаУдаление блоков с тишиной в начале и конце : НетПри вычислениях CRC использовались нулевые сэмплы : ДаИнтерфейс : Установленный внешний ASPI-интерфейс
Выходной формат : Пользовательский кодировщикВыбранный битрейт : 128 kBit/sКачество : ВысокийДобавление ID3-тега : НетУтилита сжатия : C:\Program Files\Exact Audio Copy\Flac\flac.exeДополнительные параметры : -V -8 -T "Date=%year%" -T "Genre=%genre%" %source%
TOC извлечённого CD
Трек | Старт | Длительность | Начальный сектор | Конечный сектор --------------------------------------------------------------------- 1 | 0:00.00 | 4:02.07 | 0 | 18156 2 | 4:02.07 | 3:12.70 | 18157 | 32626 3 | 7:15.02 | 3:30.25 | 32627 | 48401 4 | 10:45.27 | 3:48.08 | 48402 | 65509 5 | 14:33.35 | 4:01.60 | 65510 | 83644 6 | 18:35.20 | 4:22.12 | 83645 | 103306 7 | 22:57.32 | 3:05.70 | 103307 | 117251 8 | 26:03.27 | 5:21.68 | 117252 | 141394 9 | 31:25.20 | 3:14.35 | 141395 | 155979 10 | 34:39.55 | 3:17.42 | 155980 | 170796 11 | 37:57.22 | 3:32.03 | 170797 | 186699 12 | 41:29.25 | 4:47.70 | 186700 | 208294 13 | 46:17.20 | 3:59.37 | 208295 | 226256
Характеристики диапазона извлечения и сообщения об ошибках
Выбранный диапазон
Имя файла D:\Nasty Idols - Vicious.wav
Пиковый уровень 100.0 % Скорость извлечения 6.3 X Качество диапазона 100.0 % CRC теста E017ADB2 CRC копии E017ADB2 Копирование... OK
Ошибок не произошло
AccurateRip: сводка
Трек 1 точность не определена (достоверность 2) [FF8AEE94], AccurateRip вернул [748EA671] (AR v2)Трек 2 точность не определена (достоверность 2) [FEEDBA4B], AccurateRip вернул [0BED785A] (AR v2)Трек 3 точность не определена (достоверность 2) [14534068], AccurateRip вернул [E6CF1E50] (AR v2)Трек 4 точность не определена (достоверность 2) [EB545834], AccurateRip вернул [45145AAA] (AR v2)Трек 5 точность не определена (достоверность 2) [959AC211], AccurateRip вернул [8470753B] (AR v2)Трек 6 точность не определена (достоверность 2) [1B1AEA64], AccurateRip вернул [37927981] (AR v2)Трек 7 точность не определена (достоверность 2) [16A49D15], AccurateRip вернул [5A765072] (AR v2)Трек 8 точность не определена (достоверность 2) [7AD630D9], AccurateRip вернул [6570781F] (AR v2)Трек 9 точность не определена (достоверность 2) [08FD8C5A], AccurateRip вернул [F95E615E] (AR v2)Трек 10 точность не определена (достоверность 2) [C90A3BC1], AccurateRip вернул [48BABAFC] (AR v2)Трек 11 точность не определена (достоверность 2) [090F2535], AccurateRip вернул [89ADD797] (AR v2)Трек 12 точность не определена (достоверность 2) [9D5C176A], AccurateRip вернул [E064AC1D] (AR v2)Трек 13 точность не определена (достоверность 2) [27A49F2F], AccurateRip вернул [8233C4FA] (AR v2)
Ни один трек не прошёл проверки на точностьВ вашей базе может быть иной вариант штамповки диска
Конец отчёта
---- CUETools DB Plugin V2.1.6
[CTDB TOCID: nh7CdTLX56FWYb.DQuEzNfFuxSA-] foundSubmit result: nh7CdTLX56FWYb.DQuEzNfFuxSA- has been confirmedTrack | CTDB Status 1 | (1/1) Accurately ripped 2 | (1/1) Accurately ripped 3 | (1/1) Accurately ripped 4 | (1/1) Accurately ripped 5 | (1/1) Accurately ripped 6 | (1/1) Accurately ripped 7 | (1/1) Accurately ripped 8 | (1/1) Accurately ripped 9 | (1/1) Accurately ripped 10 | (1/1) Accurately ripped 11 | (1/1) Accurately ripped 12 | (1/1) Accurately ripped 13 | (1/1) Accurately ripped
==== Контрольная сумма отчёта 6E14C57B415A5C32A6269E8FE11813875D49F05BE2B975834A3767932E78684F ====

Лог DRM

foobar2000 1.2.9 / Dynamic Range Meter 1.1.1log date: 2019-03-15 22:54:35
--------------------------------------------------------------------------------Analyzed: Nasty Idols / Vicious--------------------------------------------------------------------------------
DR Peak RMS Duration Track--------------------------------------------------------------------------------DR8 0.00 dB -8.85 dB 4:02 01-Head's Down (In Tinseltown)DR7 0.00 dB -8.80 dB 3:13 02-HellhouseDR7 0.00 dB -8.86 dB 3:30 03-Dance Of The WickedDR8 0.00 dB -10.05 dB 3:48 04-Ain.t Got NothingDR8 0.00 dB -9.26 dB 4:02 05-R.I.PDR8 0.00 dB -9.43 dB 4:22 06-Pretty Cut WildDR7 0.00 dB -8.62 dB 3:06 07-BlackshotDR9 0.00 dB -11.64 dB 5:22 08-No TimeDR8 0.00 dB -9.46 dB 3:14 09-Killing StuffDR8 0.00 dB -9.14 dB 3:18 10-Do You Want AnotherDR8 0.00 dB -8.82 dB 3:32 11-Hellout ShakeoutDR9 0.00 dB -11.38 dB 4:48 12-Electric WonderlandDR12 0.00 dB -14.65 dB 3:59 13-Over N.Gone--------------------------------------------------------------------------------
Number of tracks: 13Official DR value: DR8
Samplerate: 44100 HzChannels: 2Bits per sample: 16Bitrate: 1035 kbpsCodec: FLAC================================================================================

2002 (2006) | Heroes For Sale | Swedmetal Records ‎(SM-10-CD) | 48:28

Треклист:
01. Heroe For Sale (5:09)
02. Down (3:33)
03. Sheila (3:43)
04. Cool Runnings (3:55)
05. Too Drunk To Fuck (3:09)
06. Wish You Were Here (5:26)
07. Blind Leads Blind (4:24)
08. Dead By Dawn (4:51)
09. When The Blood Runs Cold (5:42)
10. Generation Landslide (4:32)
11. Give Me No Lip (4:04)

Лог создания рипа

Exact Audio Copy V1.3 from 2. September 2016
Отчёт EAC об извлечении, выполненном 26. февраля 2019, 16:58
Nasty Idols / Heroes For Sale
Дисковод: ASUS DRW-2014S1T Adapter: 2 ID: 1
Режим чтения : ДостоверностьИспользование точного потока : ДаОтключение кэша аудио : ДаИспользование указателей C2 : Нет
Коррекция смещения при чтении : 6Способность читать области Lead-in и Lead-out : НетЗаполнение пропущенных сэмплов тишиной : ДаУдаление блоков с тишиной в начале и конце : НетПри вычислениях CRC использовались нулевые сэмплы : ДаИнтерфейс : Установленный внешний ASPI-интерфейс
Выходной формат : Пользовательский кодировщикВыбранный битрейт : 128 kBit/sКачество : ВысокийДобавление ID3-тега : НетУтилита сжатия : C:\Program Files\Exact Audio Copy\Flac\flac.exeДополнительные параметры : -V -8 -T "Date=%year%" -T "Genre=%genre%" %source%
TOC извлечённого CD
Трек | Старт | Длительность | Начальный сектор | Конечный сектор --------------------------------------------------------------------- 1 | 0:00.00 | 5:08.38 | 0 | 23137 2 | 5:08.38 | 3:33.24 | 23138 | 39136 3 | 8:41.62 | 3:42.63 | 39137 | 55849 4 | 12:24.50 | 3:55.32 | 55850 | 73506 5 | 16:20.07 | 3:08.63 | 73507 | 87669 6 | 19:28.70 | 5:25.57 | 87670 | 112101 7 | 24:54.52 | 4:24.26 | 112102 | 131927 8 | 29:19.03 | 4:51.27 | 131928 | 153779 9 | 34:10.30 | 5:42.12 | 153780 | 179441 10 | 39:52.42 | 4:31.70 | 179442 | 199836 11 | 44:24.37 | 4:03.48 | 199837 | 218109
Характеристики диапазона извлечения и сообщения об ошибках
Выбранный диапазон
Имя файла D:\Nasty Idols - Heroes For Sale.wav
Пиковый уровень 96.5 % Скорость извлечения 4.3 X Качество диапазона 100.0 % CRC теста 687EDED4 CRC копии 687EDED4 Копирование... OK
Ошибок не произошло
AccurateRip: сводка
Трек 1 : извлечено точно (доверие 1) [316A04B2] (AR v1)Трек 2 : извлечено точно (доверие 1) [551C5A04] (AR v1)Трек 3 : извлечено точно (доверие 1) [372743EE] (AR v1)Трек 4 : извлечено точно (доверие 1) [63D6060B] (AR v1)Трек 5 : извлечено точно (доверие 1) [8CFBF58B] (AR v1)Трек 6 : извлечено точно (доверие 1) [507C598E] (AR v1)Трек 7 : извлечено точно (доверие 1) [98BA08D6] (AR v1)Трек 8 : извлечено точно (доверие 1) [CBDD9323] (AR v1)Трек 9 : извлечено точно (доверие 1) [B26FCC8C] (AR v1)Трек 10 : извлечено точно (доверие 1) [6CC294F0] (AR v1)Трек 11 : извлечено точно (доверие 1) [DE698D8A] (AR v1)
Все треки извлечены точно
Конец отчёта
---- CUETools DB Plugin V2.1.6
[CTDB TOCID: posqbVONimpJ6knMNTl6BVISd5w-] foundSubmit result: posqbVONimpJ6knMNTl6BVISd5w- has been confirmedTrack | CTDB Status 1 | (2/2) Accurately ripped 2 | (2/2) Accurately ripped 3 | (2/2) Accurately ripped 4 | (2/2) Accurately ripped 5 | (2/2) Accurately ripped 6 | (2/2) Accurately ripped 7 | (2/2) Accurately ripped 8 | (2/2) Accurately ripped 9 | (2/2) Accurately ripped 10 | (2/2) Accurately ripped 11 | (2/2) Accurately ripped
==== Контрольная сумма отчёта 0271AC160ADFF4602A50DBF8A3648FA30E1D3F8B824201D348A9FFB90F60BF4E ====

Лог DRM

foobar2000 1.2.9 / Dynamic Range Meter 1.1.1log date: 2019-03-06 19:39:42
--------------------------------------------------------------------------------Analyzed: Nasty Idols / Heroes For Sale--------------------------------------------------------------------------------
DR Peak RMS Duration Track--------------------------------------------------------------------------------DR11 -0.30 dB -12.77 dB 5:09 01-Heroe For SaleDR12 -0.30 dB -13.18 dB 3:33 02-DownDR12 -0.30 dB -12.95 dB 3:43 03-SheilaDR11 -0.30 dB -12.50 dB 3:55 04-Cool RunningsDR11 -0.30 dB -12.38 dB 3:09 05-Too Drunk To FuckDR10 -0.30 dB -12.14 dB 5:26 06-Wish You Were HereDR12 -0.30 dB -12.98 dB 4:24 07-Blind Leads BlindDR11 -0.30 dB -12.37 dB 4:51 08-Dead By DawnDR14 -0.30 dB -15.03 dB 5:42 09-When The Blood Runs ColdDR12 -0.30 dB -13.34 dB 4:32 10-Generation LandslideDR11 -0.30 dB -12.48 dB 4:04 11-Give Me No Lip--------------------------------------------------------------------------------
Number of tracks: 11Official DR value: DR12
Samplerate: 44100 HzChannels: 2Bits per sample: 16Bitrate: 1004 kbpsCodec: FLAC================================================================================

2009 | Boys Town | Irond (irond cd 09-dd726) | 46:55

Треклист:
01. Rock Out (2:38)
02. Boys Town (4:47)
03. Method Of My Madness (3:16)
04. Scar For Life (4:33)
05. Nite Like This (4:39)
06. Crashlanding (3:48)
07. 48 Hours (3:37)
08. 7 Year Itch (4:04)
09. Evil One (3:05)
10. It's Not Love (3:33)
11. Need The Nite (2:53)
12. It Ain't Easy (6:02)

Лог создания рипа

Exact Audio Copy V1.3 from 2. September 2016
Отчёт EAC об извлечении, выполненном 9. февраля 2019, 18:07
Nasty Idols / Boys Town
Дисковод: ASUS DRW-2014S1T Adapter: 2 ID: 1
Режим чтения : ДостоверностьИспользование точного потока : ДаОтключение кэша аудио : ДаИспользование указателей C2 : Нет
Коррекция смещения при чтении : 6Способность читать области Lead-in и Lead-out : НетЗаполнение пропущенных сэмплов тишиной : ДаУдаление блоков с тишиной в начале и конце : НетПри вычислениях CRC использовались нулевые сэмплы : ДаИнтерфейс : Установленный внешний ASPI-интерфейс
Выходной формат : Пользовательский кодировщикВыбранный битрейт : 128 kBit/sКачество : ВысокийДобавление ID3-тега : НетУтилита сжатия : C:\Program Files\Exact Audio Copy\Flac\flac.exeДополнительные параметры : -V -8 -T "Date=%year%" -T "Genre=%genre%" %source%
TOC извлечённого CD
Трек | Старт | Длительность | Начальный сектор | Конечный сектор --------------------------------------------------------------------- 1 | 0:00.00 | 2:37.63 | 0 | 11837 2 | 2:37.63 | 4:47.20 | 11838 | 33382 3 | 7:25.08 | 3:16.37 | 33383 | 48119 4 | 10:41.45 | 4:32.49 | 48120 | 68568 5 | 15:14.19 | 4:38.72 | 68569 | 89490 6 | 19:53.16 | 3:48.16 | 89491 | 106606 7 | 23:41.32 | 3:37.12 | 106607 | 122893 8 | 27:18.44 | 4:03.39 | 122894 | 141157 9 | 31:22.08 | 3:05.27 | 141158 | 155059 10 | 34:27.35 | 3:32.41 | 155060 | 171000 11 | 38:00.01 | 2:53.03 | 171001 | 183978 12 | 40:53.04 | 6:02.07 | 183979 | 211135
Характеристики диапазона извлечения и сообщения об ошибках
Выбранный диапазон
Имя файла D:\1\Nasty Idols - Boys Town.wav
Пиковый уровень 96.6 % Скорость извлечения 8.1 X Качество диапазона 100.0 % CRC теста F4FDF458 CRC копии F4FDF458 Копирование... OK
Ошибок не произошло
AccurateRip: сводка
Трек 1 : извлечено точно (доверие 2) [AD1318A2] (AR v1)Трек 2 : извлечено точно (доверие 2) [9EE75B04] (AR v1)Трек 3 : извлечено точно (доверие 2) [948E0679] (AR v1)Трек 4 : извлечено точно (доверие 2) [DCFB4A1F] (AR v1)Трек 5 : извлечено точно (доверие 2) [547784F7] (AR v1)Трек 6 : извлечено точно (доверие 2) [08F05A28] (AR v1)Трек 7 : извлечено точно (доверие 2) [FBB49E9E] (AR v1)Трек 8 : извлечено точно (доверие 2) [E94A89A7] (AR v1)Трек 9 : извлечено точно (доверие 2) [B56332B2] (AR v1)Трек 10 : извлечено точно (доверие 2) [76BE62A7] (AR v1)Трек 11 : извлечено точно (доверие 2) [B163E5BE] (AR v1)Трек 12 : извлечено точно (доверие 2) [FF217BE4] (AR v1)
Все треки извлечены точно
Конец отчёта
---- CUETools DB Plugin V2.1.6
[CTDB TOCID: z3FIJVbIegUBljxUQr.IlAo2Mk8-] foundSubmit result: z3FIJVbIegUBljxUQr.IlAo2Mk8- has been submittedTrack | CTDB Status 1 | (4/4) Differs in 283 samples @00:15:60-00:15:61 2 | (4/4) Accurately ripped 3 | (4/4) Accurately ripped 4 | (4/4) Accurately ripped 5 | (4/4) Accurately ripped 6 | (4/4) Accurately ripped 7 | (4/4) Accurately ripped 8 | (4/4) Accurately ripped 9 | (4/4) Accurately ripped 10 | (4/4) Accurately ripped 11 | (4/4) Accurately ripped 12 | (4/4) Accurately rippedIf you are sure that your rip contains errors, you can use CUETools to repair it.
==== Контрольная сумма отчёта C5924B5BEA7FF387D82072FE3B4DECED079B5CC6F2F8197C955AB61270F5F67B ====

Лог DRM

foobar2000 1.2.9 / Dynamic Range Meter 1.1.1log date: 2019-03-06 19:39:56
--------------------------------------------------------------------------------Analyzed: Nasty Idols / Boys Town--------------------------------------------------------------------------------
DR Peak RMS Duration Track--------------------------------------------------------------------------------DR8 -0.30 dB -9.01 dB 2:38 01-Rock OutDR8 -0.30 dB -8.74 dB 4:47 02-Boys TownDR7 -0.30 dB -8.76 dB 3:16 03-Method Of My MadnessDR8 -0.30 dB -9.42 dB 4:33 04-Scar For LifeDR8 -0.30 dB -9.45 dB 4:39 05-Nite Like ThisDR6 -0.30 dB -7.23 dB 3:48 06-CrashlandingDR7 -0.30 dB -8.46 dB 3:37 07-48 HoursDR8 -0.30 dB -9.01 dB 4:04 08-7 Year ItchDR7 -0.30 dB -8.64 dB 3:05 09-Evil OneDR8 -0.30 dB -8.86 dB 3:33 10-It's Not LoveDR7 -0.30 dB -8.24 dB 2:53 11-Need The NiteDR8 -0.30 dB -9.99 dB 6:02 12-It Ain't Easy--------------------------------------------------------------------------------
Number of tracks: 12Official DR value: DR8
Samplerate: 44100 HzChannels: 2Bits per sample: 16Bitrate: 1025 kbpsCodec: FLAC================================================================================

2012 | Kalifornia | Perris Records ‎(PER4112) | 46:50

Треклист:
01. No More Rules (4:27)
02. Kalifornia (3:10)
03. 1969 (4:48)
04. Night By Night (3:46)
05. Nightstalkin (5:13)
06. Sister Sin (3:46)
07. Pleasure Of The Pain (4:20)
08. Roadtrip (4:13)
09. Sweet Suicide (4:05)
10. Jack In The Box (2:51)
11. Since U Been Gone (6:04)

Лог создания рипа

Exact Audio Copy V1.3 from 2. September 2016
Отчёт EAC об извлечении, выполненном 26. февраля 2019, 17:54
Nasty Idols / Kalifornia
Дисковод: ASUS DRW-1612BL Adapter: 3 ID: 1
Режим чтения : ДостоверностьИспользование точного потока : ДаОтключение кэша аудио : ДаИспользование указателей C2 : Нет
Коррекция смещения при чтении : 6Способность читать области Lead-in и Lead-out : НетЗаполнение пропущенных сэмплов тишиной : ДаУдаление блоков с тишиной в начале и конце : НетПри вычислениях CRC использовались нулевые сэмплы : ДаИнтерфейс : Установленный внешний ASPI-интерфейс
Выходной формат : Пользовательский кодировщикВыбранный битрейт : 128 kBit/sКачество : ВысокийДобавление ID3-тега : НетУтилита сжатия : C:\Program Files\Exact Audio Copy\Flac\flac.exeДополнительные параметры : -V -8 -T "Date=%year%" -T "Genre=%genre%" %source%
TOC извлечённого CD
Трек | Старт | Длительность | Начальный сектор | Конечный сектор --------------------------------------------------------------------- 1 | 0:00.00 | 4:26.49 | 0 | 19998 2 | 4:26.49 | 3:09.56 | 19999 | 34229 3 | 7:36.30 | 4:47.45 | 34230 | 55799 4 | 12:24.00 | 3:45.45 | 55800 | 72719 5 | 16:09.45 | 5:12.54 | 72720 | 96173 6 | 21:22.24 | 3:46.33 | 96174 | 113156 7 | 25:08.57 | 4:20.22 | 113157 | 132678 8 | 29:29.04 | 4:12.54 | 132679 | 151632 9 | 33:41.58 | 4:05.04 | 151633 | 170011 10 | 37:46.62 | 2:50.67 | 170012 | 182828 11 | 40:37.54 | 6:03.57 | 182829 | 210110
Характеристики диапазона извлечения и сообщения об ошибках
Выбранный диапазон
Имя файла D:\Nasty Idols - Kalifornia.wav
Пиковый уровень 100.0 % Скорость извлечения 7.4 X Качество диапазона 100.0 % CRC теста 9E3DAE5E CRC копии 9E3DAE5E Копирование... OK
Ошибок не произошло
AccurateRip: сводка
Трек 1 : извлечено точно (доверие 1) [86AC1DF6] (AR v1)Трек 2 : извлечено точно (доверие 1) [C402B243] (AR v1)Трек 3 : извлечено точно (доверие 1) [6425D2E8] (AR v1)Трек 4 : извлечено точно (доверие 1) [A3F80FC3] (AR v1)Трек 5 : извлечено точно (доверие 1) [E42376A1] (AR v1)Трек 6 : извлечено точно (доверие 1) [DC712308] (AR v1)Трек 7 : извлечено точно (доверие 1) [E4560AC6] (AR v1)Трек 8 : извлечено точно (доверие 1) [2BF61922] (AR v1)Трек 9 : извлечено точно (доверие 1) [5172DE74] (AR v1)Трек 10 : извлечено точно (доверие 1) [FDAD420F] (AR v1)Трек 11 : извлечено точно (доверие 1) [640836FD] (AR v1)
Все треки извлечены точно
Конец отчёта
---- CUETools DB Plugin V2.1.6
[CTDB TOCID: z3hjnBFF.rpyuPxKkTVl9Gz9lM4-] foundSubmit result: already submittedTrack | CTDB Status 1 | (3/3) Accurately ripped 2 | (3/3) Accurately ripped 3 | (3/3) Accurately ripped 4 | (3/3) Accurately ripped 5 | (3/3) Accurately ripped 6 | (3/3) Accurately ripped 7 | (3/3) Accurately ripped 8 | (3/3) Accurately ripped 9 | (3/3) Accurately ripped 10 | (3/3) Accurately ripped 11 | (3/3) Accurately ripped
==== Контрольная сумма отчёта C47F153216186432C2229A514110558A7A4D2648616AE323E5E6BC45BCC2DED4 ====

Лог DRM

foobar2000 1.2.9 / Dynamic Range Meter 1.1.1log date: 2019-03-06 19:40:13
--------------------------------------------------------------------------------Analyzed: Nasty Idols / Kalifornia--------------------------------------------------------------------------------
DR Peak RMS Duration Track--------------------------------------------------------------------------------DR8 0.00 dB -10.01 dB 4:27 01-No More RulesDR7 0.00 dB -8.51 dB 3:10 02-KaliforniaDR8 0.00 dB -9.75 dB 4:48 03-1969DR8 0.00 dB -9.47 dB 3:46 04-Night By NightDR7 0.00 dB -8.58 dB 5:13 05-NightstalkinDR9 0.00 dB -9.88 dB 3:46 06-Sister SinDR9 0.00 dB -10.43 dB 4:20 07-Pleasure Of The PainDR9 0.00 dB -9.95 dB 4:13 08-RoadtripDR8 0.00 dB -8.68 dB 4:05 09-Sweet SuicideDR8 0.00 dB -9.35 dB 2:51 10-Jack In The BoxDR8 0.00 dB -9.88 dB 6:04 11-Since U Been Gone--------------------------------------------------------------------------------
Number of tracks: 11Official DR value: DR8
Samplerate: 44100 HzChannels: 2Bits per sample: 16Bitrate: 904 kbpsCodec: FLAC================================================================================
Machinegun Kelly

1995 | White Line Offside | Megarock Records ‎(MRRCD019) | 42:39

Когда Nasty Idols распались в середине 90-х, бывший фронтмен Энди Пирс решил в перерыве между творчеством в Nasty Idols создать клон - группу Machinegun Kelly, единственный альбом которого White Line Offside "неофициально" считается что звучит почти как очередной альбом Nasty Idols.

Треклист:
01. Hell Suicide (3:39)
02. White Line Offside (4:35)
03. Wild Sodom (3:06)
04. Crackhouse (4:19)
05. Sister Sin (3:45)
06. Bullshit City (3:31)
07. Strange Kind Of Love (2:52)
08. Kikk That Habbit (3:22)
09. Rosalie (5:25)
10. Psycho Kid (3:58)
11. Loosers Garden (4:06)

Лог создания рипа

Exact Audio Copy V1.3 from 2. September 2016
Отчёт EAC об извлечении, выполненном 9. марта 2019, 11:16
Machine Gun Kelly / White Line Offside
Дисковод: ASUS DRW-2014S1T Adapter: 2 ID: 1
Режим чтения : ДостоверностьИспользование точного потока : ДаОтключение кэша аудио : ДаИспользование указателей C2 : Нет
Коррекция смещения при чтении : 6Способность читать области Lead-in и Lead-out : НетЗаполнение пропущенных сэмплов тишиной : ДаУдаление блоков с тишиной в начале и конце : НетПри вычислениях CRC использовались нулевые сэмплы : ДаИнтерфейс : Установленный внешний ASPI-интерфейс
Выходной формат : Пользовательский кодировщикВыбранный битрейт : 128 kBit/sКачество : ВысокийДобавление ID3-тега : НетУтилита сжатия : C:\Program Files\Exact Audio Copy\Flac\flac.exeДополнительные параметры : -V -8 -T "Date=%year%" -T "Genre=%genre%" %source%
TOC извлечённого CD
Трек | Старт | Длительность | Начальный сектор | Конечный сектор --------------------------------------------------------------------- 1 | 0:00.00 | 3:38.42 | 0 | 16391 2 | 3:38.42 | 4:35.35 | 16392 | 37051 3 | 8:14.02 | 3:06.33 | 37052 | 51034 4 | 11:20.35 | 4:19.10 | 51035 | 70469 5 | 15:39.45 | 3:45.10 | 70470 | 87354 6 | 19:24.55 | 3:31.05 | 87355 | 103184 7 | 22:55.60 | 2:51.72 | 103185 | 116081 8 | 25:47.57 | 3:21.68 | 116082 | 131224 9 | 29:09.50 | 5:25.20 | 131225 | 155619 10 | 34:34.70 | 3:57.55 | 155620 | 173449 11 | 38:32.50 | 4:05.70 | 173450 | 191894
Характеристики диапазона извлечения и сообщения об ошибках
Выбранный диапазон
Имя файла D:\Machine Gun Kelly - White Line Offside.wav
Пиковый уровень 99.5 % Скорость извлечения 7.1 X Качество диапазона 100.0 % CRC теста 19844C4C CRC копии 19844C4C Копирование... OK
Ошибок не произошло
AccurateRip: сводка
Трек 1 : извлечено точно (доверие 1) [4E138439] (AR v2)Трек 2 : извлечено точно (доверие 1) [3B786BE7] (AR v2)Трек 3 : извлечено точно (доверие 1) [0F1E7E30] (AR v2)Трек 4 : извлечено точно (доверие 1) [DBC6FD61] (AR v2)Трек 5 : извлечено точно (доверие 1) [3A76A43B] (AR v2)Трек 6 : извлечено точно (доверие 1) [579B7697] (AR v2)Трек 7 : извлечено точно (доверие 1) [90636AEC] (AR v2)Трек 8 : извлечено точно (доверие 1) [44BF930E] (AR v2)Трек 9 : извлечено точно (доверие 1) [E9763786] (AR v2)Трек 10 : извлечено точно (доверие 1) [D19772ED] (AR v2)Трек 11 : извлечено точно (доверие 1) [973A8F88] (AR v2)
Все треки извлечены точно
Конец отчёта
---- CUETools DB Plugin V2.1.6
[CTDB TOCID: BF_RfykrNIqmuXDGgnYBgqlFVgI-] foundSubmit result: BF_RfykrNIqmuXDGgnYBgqlFVgI- has been confirmedTrack | CTDB Status 1 | (2/2) Accurately ripped 2 | (2/2) Accurately ripped 3 | (2/2) Accurately ripped 4 | (2/2) Accurately ripped 5 | (2/2) Accurately ripped 6 | (2/2) Accurately ripped 7 | (2/2) Accurately ripped 8 | (2/2) Accurately ripped 9 | (2/2) Accurately ripped 10 | (2/2) Accurately ripped 11 | (2/2) Accurately ripped
==== Контрольная сумма отчёта F43BD51DD555447EA6F420F7B57F9AFB1D9A48EA7CC0B11C80F0D3918D35C695 ====

Лог DRM

foobar2000 1.2.9 / Dynamic Range Meter 1.1.1log date: 2019-03-15 23:01:38
--------------------------------------------------------------------------------Analyzed: Machine Gun Kelly / White Line Offside--------------------------------------------------------------------------------
DR Peak RMS Duration Track--------------------------------------------------------------------------------DR8 -0.27 dB -9.19 dB 3:39 01-Hell SuicideDR8 -0.27 dB -9.17 dB 4:35 02-White Line OffsideDR8 -0.27 dB -9.00 dB 3:06 03-Wild SodomDR8 -0.27 dB -9.27 dB 4:19 04-CrackhouseDR8 -0.04 dB -8.95 dB 3:45 05-Sister SinDR9 -0.27 dB -10.12 dB 3:31 06-Bullshit CityDR9 -0.13 dB -10.25 dB 2:52 07-Strange Kind Of LoveDR9 -0.21 dB -10.40 dB 3:22 08-Kikk That HabbitDR8 -0.27 dB -9.91 dB 5:25 09-RosalieDR9 -0.27 dB -9.95 dB 3:58 10-Psycho KidDR8 -0.27 dB -10.16 dB 4:06 11-Loosers Garden--------------------------------------------------------------------------------
Number of tracks: 11Official DR value: DR8
Samplerate: 44100 HzChannels: 2Bits per sample: 16Bitrate: 1027 kbpsCodec: FLAC================================================================================

О альбоме (eng.)

Machinegun Kelly from Sweden are fronted by Andy Pierce of Nasty Idols fame. White Line Offside was originally released in 1995 in Sweden. When Nasty Idols broke up in the mid-90s, former front-man Andy Pierce decided that he wasn't done rockin' and went on to form sleaze/hard rock band Machinegun Kelly. This album sounds almost exactly like another Nasty Idols record, and for most of us that's what we expected. While I'm personally a big Nasty Idols fan, I can't help but feel like this album does tend to lack without Paul Espinoza's input. Half of the album is true to formula, solid hard rock numbers; however, the other half is lays almost entirely in the filler category to me. While the album didn't blow me away in a whole lot of areas, if your a Nasty Idols fan you'll like it well enough. This record is decent enough to pick up and give a listen for the price it goes for these days. Whether or not you'll be totally thrilled by the album, well that's a different story all together.
https://sleazeroxx.com/reviews/machinegun-kelly-white-line-offside/
https://illusioncity.net/machinegun-kelly-white-line-offside/

If you like the topic, please click share to help develop our site.

To download the file disable ad blocking, and reload the page.

disable adblock How to disable ad blocking?

Download by magnet link 2.02 GB Download Torrent

Login using:

Similar topics

(Hard Rock/Sleaze/Glam) Tracy Grave - Sleazy Future - 2018, MP3, 320 kbps
 96 MB   0 | 0   24-Mar-18 13:25   1
(Hard Rock) Sleazy Owl - Collection - 2015-2017 (3 CD) MP3, 320 kbps
 306 MB   0 | 0   16-Sep-17 23:30   0


   
Current time is: 15-Jun 23:47 :: All times are UTC + 3