The Beach Boys / Christmas With The Beach Boys
Жанр: Surf
Носитель: CD
Страна-производитель диска (релиза): EU
Год издания: 2004
Издатель (лейбл): Capitol Records
Номер по каталогу: 72435-79765-2-7
Аудиокодек: FLAC (*.flac)
Тип рипа: tracks+.cue
Битрейт аудио: lossless
Продолжительность: 00:58:39
Источник: локальная сеть
Наличие сканов в содержимом раздачи: нет
Треклист:
1 Little Saint Nick
2 The Man With All The Toys
3 Santa's Beard
4 Merry Christmas, Baby
5 Christmas Day
6 Frosty The Snowman
7 We Three Kings Of Orient Are
8 Blue Christmas
9 Santa Claus Is Coming To Town
10 White Christmas
11 I'll Be Home For Christmas
12 Auld Lang Syne [incl. Christmas Wishes]
13 Little Saint Nick (Single Version)
14 Auld Lang Syne (Alternate Mix)
15 Little Saint Nick (Alternate Version)
16 Child Of Winter (Christmas Song)
17 Santa's Got An Airpalne
18 Winter Symphony
19 (I Saw Santa) Rockin' Around The Christmas Tree
20 Melekalikimaka
21 Bells Of Christmas
22 Morning Christmas
23 Toy Drive Public Service Announcement
24 Dennis Wilson Christmas Message
25 Brian Wilson Christmas Interview

Лог создания рипа

EAC extraction logfile from 27. December 2008, 13:27 for CDThe Beach Boys / Christmas with the Beach Boys
Used drive : HL-DT-STDVD-RAM GSA-H55L Adapter: 0 ID: 0Read mode : Secure with NO C2, accurate stream, disable cacheRead offset correction : 102Overread into Lead-In and Lead-Out : No
Used output format : D:\Program Files\FLAC\flac.exe (User Defined Encoder) 192 kBit/s Additional command line options : -V -5 -T "artist=%a" -T "title=%t" -T "album=%g" -T "date=%y" -T "tracknumber=%n" -T "genre=%m" %s
Other options : Fill up missing offset samples with silence : Yes Delete leading and trailing silent blocks : No Native Win32 interface for Win NT & 2000
Track 1 Filename C:\Documents and Settings\Joshua\My Documents\My Music\The Beach Boys - Christmas With The Beach Boys\01 - The Beach Boys - Little Saint Nick.wav
Pre-gap length 0:00:02.00
Peak level 94.6 % Track quality 99.8 % Test CRC 60FC7EAA Copy CRC 60FC7EAA Copy OK
Track 2 Filename C:\Documents and Settings\Joshua\My Documents\My Music\The Beach Boys - Christmas With The Beach Boys\02 - The Beach Boys - The Man With All The Toys.wav
Pre-gap length 0:00:02.56
Peak level 94.6 % Track quality 100.0 % Test CRC 7E2E352D Copy CRC 7E2E352D Copy OK
Track 3 Filename C:\Documents and Settings\Joshua\My Documents\My Music\The Beach Boys - Christmas With The Beach Boys\03 - The Beach Boys - Santa's Beard.wav
Pre-gap length 0:00:02.85
Peak level 94.6 % Track quality 100.0 % Test CRC DC46BEFE Copy CRC DC46BEFE Copy OK
Track 4 Filename C:\Documents and Settings\Joshua\My Documents\My Music\The Beach Boys - Christmas With The Beach Boys\04 - The Beach Boys - Merry Christmas, Baby.wav
Pre-gap length 0:00:04.04
Peak level 94.6 % Track quality 100.0 % Test CRC BFDD1564 Copy CRC BFDD1564 Copy OK
Track 5 Filename C:\Documents and Settings\Joshua\My Documents\My Music\The Beach Boys - Christmas With The Beach Boys\05 - The Beach Boys - Christmas Day].wav
Pre-gap length 0:00:03.46
Peak level 94.6 % Track quality 100.0 % Test CRC DE506E27 Copy CRC DE506E27 Copy OK
Track 6 Filename C:\Documents and Settings\Joshua\My Documents\My Music\The Beach Boys - Christmas With The Beach Boys\06 - The Beach Boys - Frosty The Snowman.wav
Pre-gap length 0:00:01.97
Peak level 92.4 % Track quality 100.0 % Test CRC 6D7F5EDB Copy CRC 6D7F5EDB Copy OK
Track 7 Filename C:\Documents and Settings\Joshua\My Documents\My Music\The Beach Boys - Christmas With The Beach Boys\07 - The Beach Boys - We Three Kings Of Orient Are.wav
Pre-gap length 0:00:05.13
Peak level 94.6 % Track quality 100.0 % Test CRC 9DA16022 Copy CRC 9DA16022 Copy OK
Track 8 Filename C:\Documents and Settings\Joshua\My Documents\My Music\The Beach Boys - Christmas With The Beach Boys\08 - The Beach Boys - Blue Chirstmas.wav
Pre-gap length 0:00:04.05
Peak level 94.6 % Track quality 100.0 % Test CRC 25F64CDA Copy CRC 25F64CDA Copy OK
Track 9 Filename C:\Documents and Settings\Joshua\My Documents\My Music\The Beach Boys - Christmas With The Beach Boys\09 - The Beach Boys - Santa Claus Is Coming To Town.wav
Pre-gap length 0:00:03.29
Peak level 94.6 % Track quality 99.9 % Test CRC 1E9C1FC9 Copy CRC 1E9C1FC9 Copy OK
Track 10 Filename C:\Documents and Settings\Joshua\My Documents\My Music\The Beach Boys - Christmas With The Beach Boys\10 - The Beach Boys - White Christmas.wav
Pre-gap length 0:00:05.34
Peak level 88.6 % Track quality 100.0 % Test CRC EE47737E Copy CRC EE47737E Copy OK
Track 11 Filename C:\Documents and Settings\Joshua\My Documents\My Music\The Beach Boys - Christmas With The Beach Boys\11 - The Beach Boys - I'll Be Home For Christmas.wav
Pre-gap length 0:00:03.90
Peak level 81.8 % Track quality 100.0 % Test CRC F0C4BD14 Copy CRC F0C4BD14 Copy OK
Track 12 Filename C:\Documents and Settings\Joshua\My Documents\My Music\The Beach Boys - Christmas With The Beach Boys\12 - The Beach Boys - Auld Lang Syne.wav
Pre-gap length 0:00:04.14
Peak level 94.6 % Track quality 100.0 % Test CRC 35148EA5 Copy CRC 35148EA5 Copy OK
Track 13 Filename C:\Documents and Settings\Joshua\My Documents\My Music\The Beach Boys - Christmas With The Beach Boys\13 - The Beach Boys - Little Saint Nick.wav
Pre-gap length 0:00:05.73
Peak level 97.2 % Track quality 100.0 % Test CRC 171EF7F0 Copy CRC 171EF7F0 Copy OK
Track 14 Filename C:\Documents and Settings\Joshua\My Documents\My Music\The Beach Boys - Christmas With The Beach Boys\14 - The Beach Boys - Auld Lang Syne (Mono Alternate Mix).wav
Peak level 97.1 % Track quality 100.0 % Test CRC 539B2799 Copy CRC 539B2799 Copy OK
Track 15 Filename C:\Documents and Settings\Joshua\My Documents\My Music\The Beach Boys - Christmas With The Beach Boys\15 - The Beach Boys - Little Saint Nick (Alternate Version).wav
Pre-gap length 0:00:03.52
Peak level 97.2 % Track quality 100.0 % Test CRC 14BBD434 Copy CRC 14BBD434 Copy OK
Track 16 Filename C:\Documents and Settings\Joshua\My Documents\My Music\The Beach Boys - Christmas With The Beach Boys\16 - The Beach Boys - Child Of Winter (Christmas Song).wav
Pre-gap length 0:00:03.05
Peak level 94.6 % Track quality 99.9 % Test CRC C3BC6593 Copy CRC C3BC6593 Copy OK
Track 17 Filename C:\Documents and Settings\Joshua\My Documents\My Music\The Beach Boys - Christmas With The Beach Boys\17 - The Beach Boys - Santa's Got An Airplane.wav
Pre-gap length 0:00:02.54
Peak level 97.2 % Track quality 100.0 % Test CRC 141DF194 Copy CRC 141DF194 Copy OK
Track 18 Filename C:\Documents and Settings\Joshua\My Documents\My Music\The Beach Boys - Christmas With The Beach Boys\18 - The Beach Boys - Winter Symphony.wav
Pre-gap length 0:00:01.14
Peak level 97.2 % Track quality 100.0 % Test CRC 92DD1889 Copy CRC 92DD1889 Copy OK
Track 19 Filename C:\Documents and Settings\Joshua\My Documents\My Music\The Beach Boys - Christmas With The Beach Boys\19 - The Beach Boys - (I Saw Santa) Rockin' Around The Christmas Tree.wav
Pre-gap length 0:00:04.18
Peak level 97.2 % Track quality 100.0 % Test CRC 731948C3 Copy CRC 731948C3 Copy OK
Track 20 Filename C:\Documents and Settings\Joshua\My Documents\My Music\The Beach Boys - Christmas With The Beach Boys\20 - The Beach Boys - Melekalikimaka.wav
Pre-gap length 0:00:02.12
Peak level 97.2 % Track quality 100.0 % Test CRC 3669E6A8 Copy CRC 3669E6A8 Copy OK
Track 21 Filename C:\Documents and Settings\Joshua\My Documents\My Music\The Beach Boys - Christmas With The Beach Boys\21 - The Beach Boys - Bells Of Christmas.wav
Pre-gap length 0:00:02.22
Peak level 97.2 % Track quality 99.9 % Test CRC 4E68566C Copy CRC 4E68566C Copy OK
Track 22 Filename C:\Documents and Settings\Joshua\My Documents\My Music\The Beach Boys - Christmas With The Beach Boys\22 - The Beach Boys - Morning Christmas.wav
Pre-gap length 0:00:02.56
Peak level 78.4 % Track quality 100.0 % Test CRC 8F7815A1 Copy CRC 8F7815A1 Copy OK
Track 23 Filename C:\Documents and Settings\Joshua\My Documents\My Music\The Beach Boys - Christmas With The Beach Boys\23 - The Beach Boys - Toy Drive Public Service Announcement.wav
Pre-gap length 0:00:04.14
Peak level 65.6 % Track quality 100.0 % Test CRC 9A6A80D6 Copy CRC 9A6A80D6 Copy OK
Track 24 Filename C:\Documents and Settings\Joshua\My Documents\My Music\The Beach Boys - Christmas With The Beach Boys\24 - The Beach Boys - Dennis Wilson Christmas Message.wav
Pre-gap length 0:00:01.04
Peak level 55.7 % Track quality 100.0 % Test CRC 895BE6B6 Copy CRC 895BE6B6 Copy OK
Track 25 Filename C:\Documents and Settings\Joshua\My Documents\My Music\The Beach Boys - Christmas With The Beach Boys\25 - The Beach Boys - Brian Wilson Christmas Interview.wav
Pre-gap length 0:00:02.97
Peak level 92.7 % Track quality 100.0 % Test CRC 609A4792 Copy CRC 609A4792 Copy OK
No errors occured
End of status report

Содержание индексной карты (.CUE)

REM GENRE RockREM DATE 2004REM DISCID 620DCD19REM COMMENT "ExactAudioCopy v0.95b4"PERFORMER "The Beach Boys"TITLE "Christmas with the Beach Boys"FILE "01 - The Beach Boys - Little Saint Nick.wav" WAVE  TRACK 01 AUDIO    TITLE "Little Saint Nick"    PERFORMER "The Beach Boys"    INDEX 01 00:00:00  TRACK 02 AUDIO    TITLE "The Man With All The Toys"    PERFORMER "The Beach Boys"    INDEX 00 02:00:17FILE "02 - The Beach Boys - The Man With All The Toys.wav" WAVE    INDEX 01 00:00:00  TRACK 03 AUDIO    TITLE "Santa's Beard"    PERFORMER "The Beach Boys"    INDEX 00 01:31:62FILE "03 - The Beach Boys - Santa's Beard.wav" WAVE    INDEX 01 00:00:00  TRACK 04 AUDIO    TITLE "Merry Christmas, Baby"    PERFORMER "The Beach Boys"    INDEX 00 01:59:13FILE "04 - The Beach Boys - Merry Christmas, Baby.wav" WAVE    INDEX 01 00:00:00  TRACK 05 AUDIO    TITLE "Christmas Day]"    PERFORMER "The Beach Boys"    INDEX 00 02:19:37FILE "05 - The Beach Boys - Christmas Day].wav" WAVE    INDEX 01 00:00:00  TRACK 06 AUDIO    TITLE "Frosty The Snowman"    PERFORMER "The Beach Boys"    INDEX 00 01:46:34FILE "06 - The Beach Boys - Frosty The Snowman.wav" WAVE    INDEX 01 00:00:00  TRACK 07 AUDIO    TITLE "We Three Kings Of Orient Are"    PERFORMER "The Beach Boys"    INDEX 00 01:53:60FILE "07 - The Beach Boys - We Three Kings Of Orient Are.wav" WAVE    INDEX 01 00:00:00  TRACK 08 AUDIO    TITLE "Blue Chirstmas"    PERFORMER "The Beach Boys"    INDEX 00 04:02:27FILE "08 - The Beach Boys - Blue Chirstmas.wav" WAVE    INDEX 01 00:00:00  TRACK 09 AUDIO    TITLE "Santa Claus Is Coming To Town"    PERFORMER "The Beach Boys"    INDEX 00 03:08:25FILE "09 - The Beach Boys - Santa Claus Is Coming To Town.wav" WAVE    INDEX 01 00:00:00  TRACK 10 AUDIO    TITLE "White Christmas"    PERFORMER "The Beach Boys"    INDEX 00 02:19:05FILE "10 - The Beach Boys - White Christmas.wav" WAVE    INDEX 01 00:00:00  TRACK 11 AUDIO    TITLE "I'll Be Home For Christmas"    PERFORMER "The Beach Boys"    INDEX 00 02:28:43FILE "11 - The Beach Boys - I'll Be Home For Christmas.wav" WAVE    INDEX 01 00:00:00  TRACK 12 AUDIO    TITLE "Auld Lang Syne"    PERFORMER "The Beach Boys"    INDEX 00 02:43:56FILE "12 - The Beach Boys - Auld Lang Syne.wav" WAVE    INDEX 01 00:00:00  TRACK 13 AUDIO    TITLE "Little Saint Nick"    PERFORMER "The Beach Boys"    INDEX 00 01:18:25FILE "13 - The Beach Boys - Little Saint Nick.wav" WAVE    INDEX 01 00:00:00FILE "14 - The Beach Boys - Auld Lang Syne (Mono Alternate Mix).wav" WAVE  TRACK 14 AUDIO    TITLE "Auld Lang Syne (Mono Alternate Mix)"    PERFORMER "The Beach Boys"    INDEX 01 00:00:00  TRACK 15 AUDIO    TITLE "Little Saint Nick (Alternate Version)"    PERFORMER "The Beach Boys"    INDEX 00 01:21:74FILE "15 - The Beach Boys - Little Saint Nick (Alternate Version).wav" WAVE    INDEX 01 00:00:00  TRACK 16 AUDIO    TITLE "Child Of Winter (Christmas Song)"    PERFORMER "The Beach Boys"    INDEX 00 02:03:30FILE "16 - The Beach Boys - Child Of Winter (Christmas Song).wav" WAVE    INDEX 01 00:00:00  TRACK 17 AUDIO    TITLE "Santa's Got An Airplane"    PERFORMER "The Beach Boys"    INDEX 00 02:47:60FILE "17 - The Beach Boys - Santa's Got An Airplane.wav" WAVE    INDEX 01 00:00:00  TRACK 18 AUDIO    TITLE "Winter Symphony"    PERFORMER "The Beach Boys"    INDEX 00 03:11:27FILE "18 - The Beach Boys - Winter Symphony.wav" WAVE    INDEX 01 00:00:00  TRACK 19 AUDIO    TITLE "(I Saw Santa) Rockin' Around The Christmas Tree"    PERFORMER "The Beach Boys"    INDEX 00 02:58:01FILE "19 - The Beach Boys - (I Saw Santa) Rockin' Around The Christmas Tree.wav" WAVE    INDEX 01 00:00:00  TRACK 20 AUDIO    TITLE "Melekalikimaka"    PERFORMER "The Beach Boys"    INDEX 00 02:22:57FILE "20 - The Beach Boys - Melekalikimaka.wav" WAVE    INDEX 01 00:00:00  TRACK 21 AUDIO    TITLE "Bells Of Christmas"    PERFORMER "The Beach Boys"    INDEX 00 02:34:16FILE "21 - The Beach Boys - Bells Of Christmas.wav" WAVE    INDEX 01 00:00:00  TRACK 22 AUDIO    TITLE "Morning Christmas"    PERFORMER "The Beach Boys"    INDEX 00 02:43:34FILE "22 - The Beach Boys - Morning Christmas.wav" WAVE    INDEX 01 00:00:00  TRACK 23 AUDIO    TITLE "Toy Drive Public Service Announcement"    PERFORMER "The Beach Boys"    INDEX 00 03:21:59FILE "23 - The Beach Boys - Toy Drive Public Service Announcement.wav" WAVE    INDEX 01 00:00:00  TRACK 24 AUDIO    TITLE "Dennis Wilson Christmas Message"    PERFORMER "The Beach Boys"    INDEX 00 01:22:54FILE "24 - The Beach Boys - Dennis Wilson Christmas Message.wav" WAVE    INDEX 01 00:00:00  TRACK 25 AUDIO    TITLE "Brian Wilson Christmas Interview"    PERFORMER "The Beach Boys"    INDEX 00 00:31:00FILE "25 - The Beach Boys - Brian Wilson Christmas Interview.wav" WAVE    INDEX 01 00:00:00

If you like the topic, please click share to help develop our site.

To download the file disable ad blocking, and reload the page.

disable adblock How to disable ad blocking?

Download by magnet link 357 MB Download Torrent

Login using:

Similar topics



   
Current time is: 20-Jun 18:50 :: All times are UTC + 3