Лучший оружейник / Master of Arms- Год выпуска: 2018
Страна: США
Жанр: Документальный, познавательный
Продолжительность: ~00:41:30-Перевод: Профессиональный (Двухголосый закадровый) | Мобильное телевидение
Оригинальная аудиодорожка: Английский
Субтитры: Отсутствуют
Реклама: Отсутствует-Ведущие: Зик Стаут, Эшли Ливински, Трентон Тай, Ник Ирвинг-Описание: Издревле судьбы народов и целых империй зависели от мастеров оружейного дела. Прошли века, но легенды о специалистах по изготовлению оружия до сих пор передают из уст в уста. И вот уже мастера XXI века готовы побороться за звание лучшего в своем деле! Их задача – воссоздать типовое оружие конкретной эпохи, однажды изменившее ход истории, как, например, ружье первых поселенцев Америки или меч викингов. Бывший снайпер спецназа оценит каждый экземпляр на скорость, точность и прочность в оружейной мастерской и в полевых условиях. А экспертное жюри присудит конкурсантам баллы, чтобы выбрать одного победителя, который будет достоин звания лучшего оружейника!-Ссылка на предыдущие и альтернативные раздачиСэмпл-Качество: WEB-DL 1080p
Контейнер: MKV
Видео: 1920x1080, 29,970 fps, MPEG-4 AVC, ~5000 kbps
Аудио Rus: AC3, 48.0 kHz, 2ch, 192 kbps | Мобильное телевидение
Аудио Eng: AAC, 48.0 kHz, 2ch, 127 kbps- -

↑ Релиз ↑

Картинка от комрада RTN
За звук спасибо Wilmots
--------------------
Во всех сериях..
Присутствуют эпизоды не показанные по ТВ. На эпизоды озвучки нет.
Отсутствуют эпизоды показанные по ТВ.
--------------------
Озвучено компанией "Мобильное телевидение"
Текст читали: Анна Киселева, Ислам Ганшаев...
-

Список серий

01. Пистолет-топор / Flintlock Axe Pistol
02. Американская длинноствольная винтовка / American Long Rifle
03. Меч Жанны д'Арк / Joan of Arc Sword
04. Мушкетон / Blunderbuss
05. Арбалет / Arbalest Crossbow
06. Гранатомет / Grenade Launcher
07. Клинки Первой мировой войны / Blades of WWI
08. Пистолет-мачете / Elgin Pistol
-

MediaInfo

ОбщееУникальный идентификатор                 : 243029524211743325088347369738377228825 (0xB6D5C8A77114B6C4572F44937031F219)Полное имя                               : H:\Master.of.Arms.S01.1080p.WEB-DL.AAC2.0.x264-RTN\Master.of.Arms.S01.1080p.WEB-DL.x264.(Discovery Channel)[email protected]\Mas[email protected]EniaHD.mkvФормат                                   : MatroskaВерсия формата                           : Version 4Размер файла                             : 1,52 ГбайтПродолжительность                        : 41 м. 29 с.Общий поток                              : 5227 Кбит/секНазвание фильма                          : Master.[email protected]EniaHDДата кодирования                         : UTC 2019-02-09 10:54:52Программа кодирования                    : mkvmerge v30.1.0 ('Forever And More') 64-bitБиблиотека кодирования                   : libebml v1.3.6 + libmatroska v1.4.9
ВидеоИдентификатор : 1Формат : AVCФормат/Информация : Advanced Video CodecПрофиль формата : [email protected]Настройки формата : CABAC / 2 Ref FramesПараметр CABAC формата : ДаПараметр RefFrames формата : 2 кадраИдентификатор кодека : V_MPEG4/ISO/AVCПродолжительность : 41 м. 29 с.Битрейт : 4906 Кбит/секШирина : 1920 пикселейВысота : 1080 пикселейСоотношение сторон : 16:9Режим частоты кадров : ПостоянныйЧастота кадров : 29,970 (30000/1001) кадров/секЧастота кадров в оригинале : 30,000 кадров/секЦветовое пространство : YUVСубдискретизация насыщенности : 4:2:0Битовая глубина : 8 битТип развёртки : ПрогрессивнаяБит/(Пиксели*Кадры) : 0.079Размер потока : 1,42 Гбайт (94%)Default : ДаForced : Нет
Аудио #1Идентификатор : 2Формат : AC-3Формат/Информация : Audio Coding 3Коммерческое название : Dolby DigitalИдентификатор кодека : A_AC3Продолжительность : 41 м. 29 с.Вид битрейта : ПостоянныйБитрейт : 192 Кбит/секКаналы : 2 каналаChannel layout : L RЧастота : 48,0 КГцЧастота кадров : 31,250 кадров/сек (1536 SPF)Битовая глубина : 16 битМетод сжатия : С потерямиРазмер потока : 57,0 Мбайт (4%)Заголовок : DVO (Мобильное телевидение)Язык : RussianServiceKind/String : Complete MainDefault : ДаForced : Нет
Аудио #2Идентификатор : 3Формат : AAC LC SBRФормат/Информация : Advanced Audio Codec Low Complexity with Spectral Band ReplicationКоммерческое название : HE-AACНастройки формата : ImplicitИдентификатор кодека : A_AAC-2Продолжительность : 41 м. 29 с.Битрейт : 127 Кбит/секКаналы : 2 каналаChannel layout : L RЧастота : 48,0 КГцЧастота кадров : 23,438 кадра/сек (2048 SPF)Метод сжатия : С потерямиРазмер потока : 37,6 Мбайт (2%)Язык : EnglishDefault : НетForced : Нет
-

Скриншоты

-

If you like the topic, please click share to help develop our site.

To download the file disable ad blocking, and reload the page.

disable adblock How to disable ad blocking?

Download by magnet link 12.18 GB Download Torrent

Login using:

Similar topics

Битва оружейников (2017) SATRip (4 серии из 4)
 2.13 GB   0 | 0   06-Nov-17 06:41   8
Мир танков (2018) IPTVRip (серии 1-7) (Обновляемая)
 1.37 GB   0 | 0   18-Sep-18 15:00   5
Арсенал России (2010) SATRip (4 серии из 4)
 1.19 GB   2 | 1   13-Apr-18 06:40   3


   
Current time is: 20-Jun 18:26 :: All times are UTC + 3