В поисках природных сокровищ / Mineral Explorers
Год выпуска: 2014
Страна: США
Студия: Mineral Explorers
Жанр: Документальный, геология, путешествия
Продолжительность: ~ 6 x 00:25:45
Перевод: Профессиональный (двухголосый закадровый)
Доп. инфо о переводе: 1 ТВЧ
Режиссер: Джонатан Кудабек / Jonathan Kudabeck, Марк Уилкен / Mark Wilcken
Описание: Томас Нагин - экстраординарный исследователь минералов. В течение последних сорока лет он наносил на карту самые отдаленные области Земли, надеясь найти редкие природные ископаемые. В этой программе он отправится в невероятное путешествие по всему миру, чтобы пополнить свою бесценную коллекцию камней. Он расскажет, где и как можно добыть драгоценные и уникальные камни, и с какими трудностями связан этот процесс
IMDb
Сэмпл: https://www.sendspace.com/file/ta8auv
Тип релиза: HDTV 1080i
Контейнер: MKV
Видео: 1920x1080 (16:9), 25 fps, AVC (x264), [email protected], ~ 9230 kbps, 25fps, 0.178 bit/pixel
Аудио: Русский 48.0 KHz, AC3 6 ch (Front: L C R, Side: L R, LFE) ch, ~448.00 kbps avg

MediaInfo

Complete name               : F:\Наладки\В поисках природных сокровищ\01. Боливия.mkvFormat                      : MatroskaFormat version              : Version 4 / Version 2File size                   : 1.78 GiBDuration                    : 25 min 47 sOverall bit rate            : 9 874 kb/sEncoded date                : UTC 2019-03-03 07:02:11Writing application         : mkvmerge v6.6.0 ('The Edge Of The In Between') built on Dec  1 2013 17:55:00Writing library             : libebml v1.3.0 + libmatroska v1.4.1
VideoID : 1Format : AVCFormat/Info : Advanced Video CodecFormat profile : [email protected] settings : CABAC / 3 Ref FramesFormat settings, CABAC : YesFormat settings, ReFrames : 3 framesCodec ID : V_MPEG4/ISO/AVCDuration : 25 min 47 sBit rate : 9 230 kb/sWidth : 1 920 pixelsHeight : 1 080 pixelsDisplay aspect ratio : 16:9Frame rate mode : ConstantFrame rate : 25.000 FPSColor space : YUVChroma subsampling : 4:2:0Bit depth : 8 bitsScan type : InterlacedScan type, store method : Separated fieldsScan order : Top Field FirstBits/(Pixel*Frame) : 0.178Stream size : 1.66 GiB (93%)Default : YesForced : NoColor range : LimitedColor primaries : BT.709Transfer characteristics : BT.709Matrix coefficients : BT.709
AudioID : 2Format : AC-3Format/Info : Audio Coding 3Codec ID : A_AC3Duration : 25 min 47 sBit rate mode : ConstantBit rate : 448 kb/sChannel(s) : 6 channelsChannel positions : Front: L C R, Side: L R, LFESampling rate : 48.0 kHzFrame rate : 31.250 FPS (1536 SPF)Bit depth : 16 bitsCompression mode : LossyStream size : 82.6 MiB (5%)Language : RussianService kind : Complete MainDefault : YesForced : No
Complete name : F:\Наладки\В поисках природных сокровищ\02. Колумбия.mkvFormat : MatroskaFormat version : Version 4 / Version 2File size : 1.89 GiBDuration : 25 min 45 sOverall bit rate : 10.5 Mb/sEncoded date : UTC 2019-03-03 07:01:32Writing application : mkvmerge v6.6.0 ('The Edge Of The In Between') built on Dec 1 2013 17:55:00Writing library : libebml v1.3.0 + libmatroska v1.4.1
VideoID : 1Format : AVCFormat/Info : Advanced Video CodecFormat profile : [email protected] settings : CABAC / 3 Ref FramesFormat settings, CABAC : YesFormat settings, ReFrames : 3 framesCodec ID : V_MPEG4/ISO/AVCDuration : 25 min 45 sBit rate : 9 830 kb/sWidth : 1 920 pixelsHeight : 1 080 pixelsDisplay aspect ratio : 16:9Frame rate mode : ConstantFrame rate : 25.000 FPSColor space : YUVChroma subsampling : 4:2:0Bit depth : 8 bitsScan type : InterlacedScan type, store method : Separated fieldsScan order : Top Field FirstBits/(Pixel*Frame) : 0.190Stream size : 1.77 GiB (94%)Default : YesForced : NoColor range : LimitedColor primaries : BT.709Transfer characteristics : BT.709Matrix coefficients : BT.709
AudioID : 2Format : AC-3Format/Info : Audio Coding 3Codec ID : A_AC3Duration : 25 min 45 sBit rate mode : ConstantBit rate : 448 kb/sChannel(s) : 6 channelsChannel positions : Front: L C R, Side: L R, LFESampling rate : 48.0 kHzFrame rate : 31.250 FPS (1536 SPF)Bit depth : 16 bitsCompression mode : LossyStream size : 82.6 MiB (4%)Language : RussianService kind : Complete MainDefault : YesForced : No
Complete name : F:\Наладки\В поисках природных сокровищ\03. Бразилия.mkvFormat : MatroskaFormat version : Version 4 / Version 2File size : 1.67 GiBDuration : 25 min 44 sOverall bit rate : 9 312 kb/sEncoded date : UTC 2019-03-17 08:31:46Writing application : mkvmerge v6.6.0 ('The Edge Of The In Between') built on Dec 1 2013 17:55:00Writing library : libebml v1.3.0 + libmatroska v1.4.1
VideoID : 1Format : AVCFormat/Info : Advanced Video CodecFormat profile : [email protected] settings : CABAC / 3 Ref FramesFormat settings, CABAC : YesFormat settings, ReFrames : 3 framesCodec ID : V_MPEG4/ISO/AVCDuration : 25 min 44 sBit rate : 8 679 kb/sWidth : 1 920 pixelsHeight : 1 080 pixelsDisplay aspect ratio : 16:9Frame rate mode : ConstantFrame rate : 25.000 FPSColor space : YUVChroma subsampling : 4:2:0Bit depth : 8 bitsScan type : InterlacedScan type, store method : Separated fieldsScan order : Top Field FirstBits/(Pixel*Frame) : 0.167Stream size : 1.56 GiB (93%)Default : YesForced : NoColor range : LimitedColor primaries : BT.709Transfer characteristics : BT.709Matrix coefficients : BT.709
AudioID : 2Format : AC-3Format/Info : Audio Coding 3Codec ID : A_AC3Duration : 25 min 44 sBit rate mode : ConstantBit rate : 448 kb/sChannel(s) : 6 channelsChannel positions : Front: L C R, Side: L R, LFESampling rate : 48.0 kHzFrame rate : 31.250 FPS (1536 SPF)Bit depth : 16 bitsCompression mode : LossyStream size : 82.5 MiB (5%)Language : RussianService kind : Complete MainDefault : YesForced : No
Complete name : F:\Наладки\В поисках природных сокровищ\06. Мексика.mkvFormat : MatroskaFormat version : Version 4 / Version 2File size : 1.61 GiBDuration : 25 min 49 sOverall bit rate : 8 923 kb/sEncoded date : UTC 2019-03-17 08:35:07Writing application : mkvmerge v6.6.0 ('The Edge Of The In Between') built on Dec 1 2013 17:55:00Writing library : libebml v1.3.0 + libmatroska v1.4.1
VideoID : 1Format : AVCFormat/Info : Advanced Video CodecFormat profile : [email protected] settings : CABAC / 3 Ref FramesFormat settings, CABAC : YesFormat settings, ReFrames : 3 framesCodec ID : V_MPEG4/ISO/AVCDuration : 25 min 49 sBit rate : 8 298 kb/sWidth : 1 920 pixelsHeight : 1 080 pixelsDisplay aspect ratio : 16:9Frame rate mode : ConstantFrame rate : 25.000 FPSColor space : YUVChroma subsampling : 4:2:0Bit depth : 8 bitsScan type : InterlacedScan type, store method : Separated fieldsScan order : Top Field FirstBits/(Pixel*Frame) : 0.160Stream size : 1.50 GiB (93%)Default : YesForced : NoColor range : LimitedColor primaries : BT.709Transfer characteristics : BT.709Matrix coefficients : BT.709
AudioID : 2Format : AC-3Format/Info : Audio Coding 3Codec ID : A_AC3Duration : 25 min 49 sBit rate mode : ConstantBit rate : 448 kb/sChannel(s) : 6 channelsChannel positions : Front: L C R, Side: L R, LFESampling rate : 48.0 kHzFrame rate : 31.250 FPS (1536 SPF)Bit depth : 16 bitsCompression mode : LossyStream size : 82.7 MiB (5%)Language : RussianService kind : Complete MainDefault : YesForced : No

Содержание

01. Bolivia
Путешествие в джунгли восточной Боливии уводит нас глубоко под землю в мир природных чудес. Присоединяйтесь к Томасу, когда он исследует шахту Анахи, известную производством аметиста и аметрина. Приключение начинается в 400 милях от оживленного города Санта-Крус, а затем отправляется на лодке через водно-болотные угодья Пантанала к шахте. Тогда это глубоко под землей, чтобы обнаружить минералы и мифы. Посмотрите, как добываются полезные ископаемые, посмотрите, как они превращаются из необработанных драгоценных камней в драгоценные камни, и испытайте, во-первых, самый большой в мире карман драгоценных камней!
02. Colombia
Каждый день на улицах Боготы, процветающей столицы Колумбии, продаются изумруды стоимостью в миллионы долларов. Но мало кто когда-либо рискнул найти источник этих неуловимых драгоценных камней, расположенных в глубине долин Андских гор. Томас ведет зрителей по коварным горным дорогам и прошлым местным жителям, чтобы исследовать великолепную, но бурную сельскую местность Колумбии, жизнь ее людей и удивительный мир изумрудов. Затем он возвращается в большой город, чтобы посетить крупнейший в мире изумрудный район.
03. Brazil - The Estrada Real
В этом эпизоде Томас путешествует по знаменитой «Эстраде-Реал», или «Королевской дороге», исследуя богатую историю Бразилии с бриллиантами и золотом. По пути он также обнаруживает странные образования в национальном парке Чапада-Диамантина и вожделенном имперском топазе, найденном исключительно в Бразилии. По пути мы встречаем «Лазерных ковбоев», которые ищут длинные красивые лазерные кристаллы кварца, и одного из самых известных коллекционеров минералов в Бразилии, который приглашает Томаса посмотреть его обширную частную коллекцию.
04. Mineral Explorers Brazil: Minas Gerais
Это путешествие поднимает нас выше и ниже восточной Бразилии, так как Нагин исследует Говернадор Валадарис, центр минералов в Бразилии, а также одно из лучших мест для парапланеризма в мире перед поездкой в Минас-Жерайс. Прославившись своими драгоценными камнями, мы видим, как бразильские минералы режутся, полируются и готовятся к продаже. Томас путешествует по местным шахтам, чтобы найти драгоценные камни в их естественной, но в равной степени красивой форме, посещает известную турмалиновую шахту Педернейра и аквамариновую шахту, где он исследует недавно найденный карман с драгоценными камнями, когда его обнаруживают.
05. Arkansas
Это один из самых распространенных минералов на Земле, но кварц совсем не обычный. В этом эпизоде Томас исследует метафизическую сторону кварца и местное любопытство, которое долгое время было закрыто для публики, Кристаллическая пещера. Он также встречается с уникальным персонажем во время судейства чемпионата мира по кварцевым кристаллам и посещает известную шахту Колмана, чтобы помочь добыть недавно обнаруженный карман кварца.
06. Mexico
Это крупнейший в мире производитель серебра, а современные компании управляют торговлей, но традиция добычи серебра в Мексике насчитывает сотни лет и помогла сформировать страну, которую мы знаем сегодня, - страну, в которой живут история и культура. Томас посещает несколько колониальных городов, построенных из богатства серебряных рудников, и исследует древнее ремесло серебряного дела. По пути он находит огромное количество кристаллизованных мексиканских минералов, но его самый большой приз - возможность путешествовать глубоко в крупнейший в мире первичный серебряный рудник.

If you like the topic, please click share to help develop our site.

To download the file disable ad blocking, and reload the page.

disable adblock How to disable ad blocking?

Download by magnet link 10.31 GB Download Torrent

Login using:

Similar topics



   
Current time is: 20-Jun 18:02 :: All times are UTC + 3