Путешествие по британским каналам (Стаффордшир-Ворчестершир-Рочдейл) / Britain's Best Canals With John Sergeant
Год выпуска: 2015
Страна: Великобритания
Студия: Alaska TV Production
Жанр: документальный
Продолжительность: 00:43:42
Перевод: Профессиональный (двухголосый закадровый)
Доп. инфо о переводе: видео продакшен
Русские субтитры: нет
Режиссер: Clive Maltby/Клайв Малтби
Описание: Водные каналы Британии протянулись на более чем 2000 тысячи миль, ведущий программы Джон приглашает посмотреть самые живописные маршруты, познакомится с интересными людьми и их историей
Сэмпл: http://multi-up.com/1226483
Тип релиза: HDTVRip 720p
Контейнер: MKV
Видео: AVC, PAL, 1280x720, 16x9, 4431Кbps, 25fps
Аудио: Русский, AC3, 2Ch, 48KHz, 192kbps

MediaInfo

ОбщееУникальный идентификатор                 : 14515469071303533819326179943425561783 (0xAEB93E124076285B342F4F25BC8D4B7)Полное имя                               : H:\Путешествие по британским каналам (Стаффордшир - Ворчестершир-Рочдейл).mkvФормат                                   : MatroskaВерсия формата                           : Version 4 / Version 2Размер файла                             : 1,41 ГбайтПродолжительность                        : 43 м. 41 с.Общий поток                              : 4625 Кбит/секДата кодирования                         : UTC 2019-03-15 15:35:19Программа кодирования                    : mkvmerge v31.0.0 ('Dolores In A Shoestand') 64-bitБиблиотека кодирования                   : libebml v1.3.6 + libmatroska v1.4.9
ВидеоИдентификатор : 1Формат : AVCФормат/Информация : Advanced Video CodecПрофиль формата : [email protected]Настройки формата : CABAC / 1 Ref FramesПараметр CABAC формата : ДаПараметр RefFrames формата : 1 кадрПараметр GOP формата : M=1, N=12Идентификатор кодека : V_MPEG4/ISO/AVCПродолжительность : 43 м. 41 с.Битрейт : 4431 Кбит/секШирина : 1280 пикселейВысота : 720 пикселейСоотношение сторон : 16:9Режим частоты кадров : ПостоянныйЧастота кадров : 25,000 кадров/секЦветовое пространство : YUVСубдискретизация насыщенности : 4:2:0Битовая глубина : 8 битТип развёртки : ПрогрессивнаяБит/(Пиксели*Кадры) : 0.192Размер потока : 1,35 Гбайт (96%)Default : ДаForced : Нет
АудиоИдентификатор : 2Формат : AC-3Формат/Информация : Audio Coding 3Идентификатор кодека : A_AC3Продолжительность : 43 м. 41 с.Вид битрейта : ПостоянныйБитрейт : 192 Кбит/секКаналы : 2 каналаРасположение каналов : Front: L RЧастота : 48,0 КГцЧастота кадров : 31,250 кадров/сек (1536 SPF)Битовая глубина : 16 битМетод сжатия : С потерямиРазмер потока : 60,0 Мбайт (4%)Язык : RussianServiceKind/String : Complete MainDefault : ДаForced : Нет

Скриншоты


If you like the topic, please click share to help develop our site.

To download the file disable ad blocking, and reload the page.

disable adblock How to disable ad blocking?

Download by magnet link 1.41 GB Download Torrent

Login using:

Similar topics



   
Current time is: 20-Jun 18:28 :: All times are UTC + 3