Обитаемый островThe Island Diaries
Годы выпуска: 2016, 2017
Страна: Канада
Производство: DBCom Media
Жанр: Документальный, познавательный, путешествия
Продолжительность: 26 x ~00:47:30
Режиссёр: Николя Буше (Nicolas Boucher)
В главной роли: Софи Фурон (Sophie Fouron)-Перевод: Профессиональный (многоголосый, закадровый)
Русские субтитры: нет-Описание: Софи Фурон открывает жизнь на островах по всему миру. Она исследует её на воде, вдоль берега и в самых укромных уголках островов. Софи узнает у обитателей островов, какие трудности их подстерегают, что они едят, о ком заботятся, чем зарабатывают на жизнь и как они отдыхают.-Источник: Рип с HDTV-записи телеканала
Автор рипа - san007-Тип релиза: HDTVRip 720p
Контейнер: MKV-Семпл видео-Видео: AVC H.264, 1280x720p (16:9), 25p fps, ~3065 kbps, ~0.13,3 bits/pixel
Аудио 1: Russian, MP2, 48KHz, 2 channels, 192 kbps
Аудио 2: English, MP2, 48KHz, 2 channels, 192 kbps-Раздача в HDTV 1080i

Раздачи с Travel+Adventure HD

Серийный турист: 1080i, 720p
Дорога в школу: 1080i, 720p
Самые опасные путешествия: 1080i, 720p
Путешествие на край света с Артом Вольфом: 1080i, 720p
Спасти Армана: 1080i, 720p
Базарный день: 1080i, 720p
Общепит: 1080i, 720p
О чем не напишут в путеводителе: 1080i, 720p
Кругосветное путешествие джентльмена: 1080i, 720p
Каменные джунгли: 1080i, 720p
Вояж по-французски: 1080i, 720p
Путешествие за красотой: 1080i, 720p
Безумные приключения: 1080i, 720p
Приключения на троих: 1080i, 720p
Лыжная горячка: 1080i, 720p
Путешествие по священной реке Ганг: 1080i, 720p

Список эпизодов

The Islands Diaries - Trailer / Трейлер передачи от телеканала
S01E01 The Faroe Islands, Denmark / Фарерские острова, Дания
S01E02 Grande Comor, The Comoros / Гранд-Комор, Коморские острова
S01E03 Salt Spring Island, Canada / остров Солт-Спринг, Канада
S01E04 Big Island-Hawaii, USA / Большой остров-Гавайи, США
S01E05 The Channel Islands, UK / Нормандские острова, Великобритания
S01E06 Cape Verde / Кабо-Верде
S01E07 Okinawa, Japan / Окинава, Япония
S01E08 Cuba / Куба
S01E09 Newfoundland, Canada / Ньюфаундленд, Канада
S01E10 Crete, Greece / Крит, Греция
S01E11 Bali, Indonesia / Бали, Индонезия
S01E12 Montserrat, UK / Монтсеррат, Великобритания
S01E13 Reunion, France / Реюньон, Франция

S02E01 Great Barrier, New Zealand / Грейт-Барриер, Новая Зеландия
S02E02 Bocas del Toro, Panama / Бокас-дель-Торо, Панама
S02E03 Guadeloupe, France / Гваделупа, Франция
S02E04 The Lofoten Islands, Norway / Лофотенские острова, Норвегия
S02E05 Chiloe, Chile / Чилоэ, Чили
S02E06 New Caledonia, France / Новая Каледония, Франция
S02E07 Majuli, India / Маджули, Индия
S02E08 The Falkland Islands, UK / Фолклендские острова, Великобритания
S02E09 The Azores, Portugal / Азорские острова, Португалия
S02E10 Jeju, South Korea / Чеджу, Южная Корея
S02E11 The Magdalen Islands, Canada / острова Мадлен, Канада
S02E12 Sardinia, Italy / Сардиния, Италия
S02E13 Baranof Island, USA / остров Баранова, США

MediaInfo

General
Format : Matroska
Format version : Version 4 / Version 2
File size : 1.14 GiB
Duration : 47 min 28 s
Overall bit rate : 3 451 kb/s
Writing application : mkvmerge v7.7.0 ('Six Voices') 64bit
Writing library : libebml v1.3.1 + libmatroska v1.4.2
Video
ID : 1
Format : AVC
Format/Info : Advanced Video Codec
Format profile : [email protected]
Format settings : CABAC / 8 Ref Frames
Format settings, CABAC : Yes
Format settings, ReFrames : 8 frames
Codec ID : V_MPEG4/ISO/AVC
Duration : 47 min 28 s
Bit rate : 3 065 kb/s
Width : 1 280 pixels
Height : 720 pixels
Display aspect ratio : 16:9
Frame rate mode : Constant
Frame rate : 25.000 FPS
Color space : YUV
Chroma subsampling : 4:2:0
Bit depth : 8 bits
Scan type : Progressive
Bits/(Pixel*Frame) : 0.133
Stream size : 1 018 MiB (87%)
Writing library : x264 core 157 r2932 303c484
Encoding settings : cabac=1 / ref=8 / deblock=1:-1:-1 / analyse=0x3:0x133 / me=umh / subme=9 / psy=1 / psy_rd=1.00:0.10 / mixed_ref=1 / me_range=24 / chroma_me=1 / trellis=2 / 8x8dct=1 / cqm=0 / deadzone=21,11 / fast_pskip=1 / chroma_qp_offset=-3 / threads=6 / lookahead_threads=1 / sliced_threads=0 / nr=0 / decimate=1 / interlaced=0 / bluray_compat=0 / constrained_intra=0 / bframes=8 / b_pyramid=2 / b_adapt=2 / b_bias=0 / direct=3 / weightb=1 / open_gop=0 / weightp=2 / keyint=250 / keyint_min=25 / scenecut=40 / intra_refresh=0 / rc_lookahead=60 / rc=2pass / mbtree=1 / bitrate=3065 / ratetol=1.0 / qcomp=0.60 / qpmin=0 / qpmax=69 / qpstep=4 / cplxblur=20.0 / qblur=0.5 / ip_ratio=1.40 / aq=1:1.00
Default : Yes
Forced : No
Audio #1
ID : 2
Format : MPEG Audio
Format version : Version 1
Format profile : Layer 2
Format settings : Joint stereo / Intensity Stereo + MS Stereo
Codec ID : A_MPEG/L2
Codec ID/Hint : MP2
Duration : 47 min 28 s
Bit rate mode : Constant
Bit rate : 192 kb/s
Channel(s) : 2 channels
Sampling rate : 48.0 kHz
Compression mode : Lossy
Stream size : 65.2 MiB (6%)
Title : Russian
Language : Russian
Default : Yes
Forced : No
Audio #2
ID : 3
Format : MPEG Audio
Format version : Version 1
Format profile : Layer 2
Format settings : Joint stereo / Intensity Stereo + MS Stereo
Codec ID : A_MPEG/L2
Codec ID/Hint : MP2
Duration : 47 min 28 s
Bit rate mode : Constant
Bit rate : 192 kb/s
Channel(s) : 2 channels
Sampling rate : 48.0 kHz
Compression mode : Lossy
Stream size : 65.2 MiB (6%)
Title : English
Language : English
Default : No
Forced : No

If you like the topic, please click share to help develop our site.

To download the file disable ad blocking, and reload the page.

disable adblock How to disable ad blocking?

Download by magnet link 29.73 GB Download Torrent

Login using:

Similar topics



   
Current time is: 20-Jun 19:00 :: All times are UTC + 3