Остров Пасхи в опасности / Easter Island Unsolved
Год выпуска: 2018
Страна: США
Студия: NATIONAL GEOGRAPHIC
Жанр: Документальный, археология, история
Продолжительность: ~ 00:43:58
Перевод: Студийный (одноголосый закадровый)
Режиссер: Джефф Люк / Geoff Luck
Описание: Рапануи (остров Пасхи) - один из наиболее удаленных и необитаемых островов на планете. Когда-то, более 1000 лет назад здесь бурлила жизнь, а жители создали уникальную островную культуру с самобытным искусством и ритуалами, которая затем довольно быстро исчезла. Вы проследите с помощью ряда поучительных историй, а также красочных съемок расцвет и закат цивилизации острова Пасхи. Сегодня вследствие подъема уровня воды в океане и эрозии береговой линии эта редкая жемчужина человечества со своими 1100 великолепными статуями рискует навсегда исчезнуть с лица земли.
Сэмпл: https://www.sendspace.com/file/ifw175
Тип релиза: HDTV 1080i
Контейнер: TS
Видео: 1920x1080 (16:9), 25 fps, AVC (x264), [email protected], ~ 8130 kbps, 25fps, 0.157 bit/pixel
Аудио: Русский 48 kHz, MPEG Layer 2, 2 ch, ~192.00 kbps avg
Аудио 2: Английский 48 kHz, MPEG Layer 2, 2 ch, ~192.00 kbps avg

MediaInfo

Complete name               : F:\Наладки\Остров Пасхи в опасности.tsFormat                      : MPEG-TSFile size                   : 2.75 GiBDuration                    : 43 min 58 sOverall bit rate mode       : VariableOverall bit rate            : 8 961 kb/s
VideoID : 1341 (0x53D)Menu ID : 13004 (0x32CC)Format : AVCFormat/Info : Advanced Video CodecFormat profile : [email protected] settings : CABAC / 3 Ref FramesFormat settings, CABAC : YesFormat settings, ReFrames : 3 framesFormat settings, GOP : M=4, N=32Codec ID : 27Duration : 43 min 58 sBit rate : 8 130 kb/sWidth : 1 920 pixelsHeight : 1 080 pixelsDisplay aspect ratio : 16:9Frame rate : 25.000 FPSColor space : YUVChroma subsampling : 4:2:0Bit depth : 8 bitsScan type : InterlacedScan type, store method : Separated fieldsScan order : Top Field FirstBits/(Pixel*Frame) : 0.157Stream size : 2.50 GiB (91%)Color range : LimitedColor primaries : BT.709Transfer characteristics : BT.709Matrix coefficients : BT.709
Audio #1ID : 1342 (0x53E)Menu ID : 13004 (0x32CC)Format : MPEG AudioFormat version : Version 1Format profile : Layer 2Codec ID : 3Duration : 43 min 58 sBit rate mode : ConstantBit rate : 192 kb/sChannel(s) : 2 channelsSampling rate : 48.0 kHzFrame rate : 41.667 FPS (1152 SPF)Compression mode : LossyDelay relative to video : -40 msStream size : 60.4 MiB (2%)Language : Russian
Audio #2ID : 1343 (0x53F)Menu ID : 13004 (0x32CC)Format : MPEG AudioFormat version : Version 1Format profile : Layer 2Codec ID : 3Duration : 43 min 58 sBit rate mode : ConstantBit rate : 192 kb/sChannel(s) : 2 channelsSampling rate : 48.0 kHzFrame rate : 41.667 FPS (1152 SPF)Compression mode : LossyDelay relative to video : -40 msStream size : 60.4 MiB (2%)Language : English

Скриншоты


If you like the topic, please click share to help develop our site.

To download the file disable ad blocking, and reload the page.

disable adblock How to disable ad blocking?

Download by magnet link 2.75 GB Download Torrent

Login using:

Similar topics



   
Current time is: 16-Jun 00:36 :: All times are UTC + 3