- Dizzy Gillespie - Four Classic Albums (1954 - 1957) 2CD, 2009, Avid Jazz - Жанр: Bop, Big Band
Издание: Avid Jazz - AMSC 968
Продолжительность: 02:32:29
Кодек: FLAC (tracks+.cue)
Битрейт: Lossless
Источник (релизер): Собственный рип
Страна-производитель диска: England
Наличие сканов в содержимом раздачи: да
Треклист:
CD1:
01. Dizzy's Blues [11:53]
02. School Days [5:40]
03. Dizzy Speaks [0:48]
04. Doodlin' [5:58]
05. Manteca [7:10]
06. I Remember Clifford [4:48]
07. Cool Breeze [9:56]
08. Sign Off [0:35]

♦ CD1

Трeклист:

01. Dizzy's Blues [11:53]
02. School Days [5:40]
03. Dizzy Speaks [0:48]
04. Doodlin' [5:58]
05. Manteca [7:10]
06. I Remember Clifford [4:48]
07. Cool Breeze [9:56]
08. Sign Off [0:35]
09. Roses Of Picardy [4:41]
10. Silhouette [3:57]
11. Can You Recall? [3:30]
12. O Solow [5:09]
13. Cool Eyes [3:52]
14. Confusion [4:45]
15. Pile Driver [3:58]
16. Hob Nail Special [2:55]
Продолжительность:
01:19:36

Лог создания рипа

Exact Audio Copy V1.3 from 2. September 2016
EAC extraction logfile from 16. March 2019, 16:51
Dizzy Gillespie / Four Classic Albums - CD1
Used drive : TSSTcorpCDDVDW SH-224FB Adapter: 1 ID: 0
Read mode : Secure
Utilize accurate stream : Yes
Defeat audio cache : Yes
Make use of C2 pointers : No
Read offset correction : 6
Overread into Lead-In and Lead-Out : No
Fill up missing offset samples with silence : Yes
Delete leading and trailing silent blocks : No
Null samples used in CRC calculations : Yes
Used interface : Native Win32 interface for Win NT & 2000
Gap handling : Appended to previous track
Used output format : User Defined Encoder
Selected bitrate : 128 kBit/s
Quality : High
Add ID3 tag : No
Command line compressor : C:\Program Files (x86)\Exact Audio Copy\Flac\flac.exe
Additional command line options : -V -8 -T "Genre=%genre%" -T "Artist=%artist%" -T "Title=%title%" -T "Album=%albumtitle%" -T "Date=%year%" -T "Tracknumber=%tracknr%" -T "Comment=%comment%" %source%
TOC of the extracted CD
Track | Start | Length | Start sector | End sector
---------------------------------------------------------
1 | 0:00.00 | 11:52.41 | 0 | 53440
2 | 11:52.41 | 5:39.73 | 53441 | 78938
3 | 17:32.39 | 0:47.38 | 78939 | 82501
4 | 18:20.02 | 5:58.31 | 82502 | 109382
5 | 24:18.33 | 7:10.24 | 109383 | 141656
6 | 31:28.57 | 4:48.01 | 141657 | 163257
7 | 36:16.58 | 9:56.36 | 163258 | 207993
8 | 46:13.19 | 0:35.18 | 207994 | 210636
9 | 46:48.37 | 4:40.63 | 210637 | 231699
10 | 51:29.25 | 3:57.23 | 231700 | 249497
11 | 55:26.48 | 3:30.09 | 249498 | 265256
12 | 58:56.57 | 5:08.63 | 265257 | 288419
13 | 64:05.45 | 3:52.27 | 288420 | 305846
14 | 67:57.72 | 4:45.05 | 305847 | 327226
15 | 72:43.02 | 3:58.14 | 327227 | 345090
16 | 76:41.16 | 2:54.43 | 345091 | 358183
Track 1
Filename D:\ssagwebster\Dizzy Gillespie - Four Classic Albums (2CD, 2009)\CD1\01. Dizzy's Blues.wav
Pre-gap length 0:00:02.00
Peak level 100.0 %
Extraction speed 2.5 X
Track quality 100.0 %
Test CRC DB0CF38D
Copy CRC DB0CF38D
Cannot be verified as accurate (confidence 9) [587F28BB], AccurateRip returned [89D23F64] (AR v2)
Copy OK
Track 2
Filename D:\ssagwebster\Dizzy Gillespie - Four Classic Albums (2CD, 2009)\CD1\02. School Days.wav
Peak level 66.5 %
Extraction speed 2.5 X
Track quality 99.9 %
Test CRC 0CCE7A46
Copy CRC 0CCE7A46
Cannot be verified as accurate (confidence 9) [8547630A], AccurateRip returned [03895264] (AR v2)
Copy OK
Track 3
Filename D:\ssagwebster\Dizzy Gillespie - Four Classic Albums (2CD, 2009)\CD1\03. Dizzy Speaks.wav
Peak level 75.3 %
Extraction speed 1.7 X
Track quality 100.0 %
Test CRC 335A899B
Copy CRC 335A899B
Cannot be verified as accurate (confidence 9) [D171AC4B], AccurateRip returned [47EBFD15] (AR v2)
Copy OK
Track 4
Filename D:\ssagwebster\Dizzy Gillespie - Four Classic Albums (2CD, 2009)\CD1\04. Doodlin'.wav
Peak level 66.7 %
Extraction speed 3.0 X
Track quality 100.0 %
Test CRC DDE2C98B
Copy CRC DDE2C98B
Cannot be verified as accurate (confidence 9) [A8EAC847], AccurateRip returned [9E197BC7] (AR v2)
Copy OK
Track 5
Filename D:\ssagwebster\Dizzy Gillespie - Four Classic Albums (2CD, 2009)\CD1\05. Manteca.wav
Peak level 88.6 %
Extraction speed 3.3 X
Track quality 100.0 %
Test CRC 92337442
Copy CRC 92337442
Cannot be verified as accurate (confidence 9) [E8153A38], AccurateRip returned [3B367D59] (AR v2)
Copy OK
Track 6
Filename D:\ssagwebster\Dizzy Gillespie - Four Classic Albums (2CD, 2009)\CD1\06. I Remember Clifford.wav
Peak level 63.5 %
Extraction speed 3.3 X
Track quality 100.0 %
Test CRC E8299423
Copy CRC E8299423
Cannot be verified as accurate (confidence 10) [5AB53CD7], AccurateRip returned [375C8AD8] (AR v2)
Copy OK
Track 7
Filename D:\ssagwebster\Dizzy Gillespie - Four Classic Albums (2CD, 2009)\CD1\07. Cool Breeze.wav
Peak level 86.1 %
Extraction speed 3.8 X
Track quality 100.0 %
Test CRC AD5002F8
Copy CRC AD5002F8
Cannot be verified as accurate (confidence 9) [CF1A630C], AccurateRip returned [EE203855] (AR v2)
Copy OK
Track 8
Filename D:\ssagwebster\Dizzy Gillespie - Four Classic Albums (2CD, 2009)\CD1\08. Sign Off.wav
Peak level 64.1 %
Extraction speed 1.9 X
Track quality 100.0 %
Test CRC 245FAF8C
Copy CRC 245FAF8C
Cannot be verified as accurate (confidence 9) [8CB1DD13], AccurateRip returned [EDDFD58C] (AR v2)
Copy OK
Track 9
Filename D:\ssagwebster\Dizzy Gillespie - Four Classic Albums (2CD, 2009)\CD1\09. Roses Of Picardy.wav
Peak level 61.5 %
Extraction speed 3.4 X
Track quality 99.9 %
Test CRC 08D17136
Copy CRC 08D17136
Cannot be verified as accurate (confidence 9) [D4EE7240], AccurateRip returned [3AD7D7F3] (AR v2)
Copy OK
Track 10
Filename D:\ssagwebster\Dizzy Gillespie - Four Classic Albums (2CD, 2009)\CD1\10. Silhouette.wav
Peak level 43.0 %
Extraction speed 3.8 X
Track quality 100.0 %
Test CRC CA090DA4
Copy CRC CA090DA4
Cannot be verified as accurate (confidence 9) [F0AA7C18], AccurateRip returned [3372949D] (AR v2)
Copy OK
Track 11
Filename D:\ssagwebster\Dizzy Gillespie - Four Classic Albums (2CD, 2009)\CD1\11. Can You Recall.wav
Peak level 47.0 %
Extraction speed 3.3 X
Track quality 99.9 %
Test CRC F00CB259
Copy CRC F00CB259
Cannot be verified as accurate (confidence 9) [EDDE707E], AccurateRip returned [D1C03E9A] (AR v2)
Copy OK
Track 12
Filename D:\ssagwebster\Dizzy Gillespie - Four Classic Albums (2CD, 2009)\CD1\12. O Solow.wav
Peak level 55.4 %
Extraction speed 4.2 X
Track quality 100.0 %
Test CRC 65BF84EE
Copy CRC 65BF84EE
Cannot be verified as accurate (confidence 9) [569F9983], AccurateRip returned [58C4C6A3] (AR v2)
Copy OK
Track 13
Filename D:\ssagwebster\Dizzy Gillespie - Four Classic Albums (2CD, 2009)\CD1\13. Cool Eyes.wav
Peak level 65.7 %
Extraction speed 4.1 X
Track quality 100.0 %
Test CRC 54B960A9
Copy CRC 54B960A9
Cannot be verified as accurate (confidence 9) [5BB08B62], AccurateRip returned [A05E8DAE] (AR v2)
Copy OK
Track 14
Filename D:\ssagwebster\Dizzy Gillespie - Four Classic Albums (2CD, 2009)\CD1\14. Confusion.wav
Peak level 63.9 %
Extraction speed 4.3 X
Track quality 100.0 %
Test CRC A5D79E31
Copy CRC A5D79E31
Cannot be verified as accurate (confidence 9) [E0B04F5E], AccurateRip returned [0C34587F] (AR v2)
Copy OK
Track 15
Filename D:\ssagwebster\Dizzy Gillespie - Four Classic Albums (2CD, 2009)\CD1\15. Pile Driver.wav
Peak level 63.3 %
Extraction speed 4.3 X
Track quality 100.0 %
Test CRC 4321E99D
Copy CRC 4321E99D
Cannot be verified as accurate (confidence 9) [F1D7D5D4], AccurateRip returned [6A9620A7] (AR v2)
Copy OK
Track 16
Filename D:\ssagwebster\Dizzy Gillespie - Four Classic Albums (2CD, 2009)\CD1\16. Hob Nail Special.wav
Peak level 60.5 %
Extraction speed 4.1 X
Track quality 100.0 %
Test CRC AB75C801
Copy CRC AB75C801
Cannot be verified as accurate (confidence 9) [445B53FE], AccurateRip returned [073F9502] (AR v2)
Copy OK
No tracks could be verified as accurate
You may have a different pressing from the one(s) in the database
No errors occurred
End of status report
==== Log checksum A46037EAC3F5C9E993A80B8DA5A141D17892BE8783708F27681B8B65CDFEF71E ====

♦ CD2

Трeклист:

01. Dizzy's Business [3:39]
02. Jessica's Day [4:51]
03. Tour De Force [5:05]
04. I Can't Get Started [2:57]
05. Doodlin' [3:57]
06. Night In Tunisia [5:34]
07. Stella By Starlight [4:08]
08. The Champ [4:44]
09. My Reverie [2:54]
10. Dizzy's Blues [2:34]
11. Emanon [4:41]
12. Ool-Ya-Koo [6:11]
13. Stay On It [5:30]
14. Good Bait [3:34]
15. One Bass Hit [4:59]
16. Manteca [7:37]
Продолжительность:
01:12:53

Лог создания рипа

Exact Audio Copy V1.3 from 2. September 2016
EAC extraction logfile from 16. March 2019, 17:45
Dizzy Gillespie / Four Classic Albums - CD2
Used drive : TSSTcorpCDDVDW SH-224FB Adapter: 1 ID: 0
Read mode : Secure
Utilize accurate stream : Yes
Defeat audio cache : Yes
Make use of C2 pointers : No
Read offset correction : 6
Overread into Lead-In and Lead-Out : No
Fill up missing offset samples with silence : Yes
Delete leading and trailing silent blocks : No
Null samples used in CRC calculations : Yes
Used interface : Native Win32 interface for Win NT & 2000
Gap handling : Appended to previous track
Used output format : User Defined Encoder
Selected bitrate : 128 kBit/s
Quality : High
Add ID3 tag : No
Command line compressor : C:\Program Files (x86)\Exact Audio Copy\Flac\flac.exe
Additional command line options : -V -8 -T "Genre=%genre%" -T "Artist=%artist%" -T "Title=%title%" -T "Album=%albumtitle%" -T "Date=%year%" -T "Tracknumber=%tracknr%" -T "Comment=%comment%" %source%
TOC of the extracted CD
Track | Start | Length | Start sector | End sector
---------------------------------------------------------
1 | 0:00.00 | 3:39.33 | 0 | 16457
2 | 3:39.33 | 4:51.24 | 16458 | 38306
3 | 8:30.57 | 5:04.38 | 38307 | 61144
4 | 13:35.20 | 2:56.69 | 61145 | 74413
5 | 16:32.14 | 3:56.66 | 74414 | 92179
6 | 20:29.05 | 5:34.37 | 92180 | 117266
7 | 26:03.42 | 4:07.70 | 117267 | 135861
8 | 30:11.37 | 4:43.38 | 135862 | 157124
9 | 34:55.00 | 2:54.00 | 157125 | 170174
10 | 37:49.00 | 2:33.59 | 170175 | 181708
11 | 40:22.59 | 4:40.41 | 181709 | 202749
12 | 45:03.25 | 6:10.42 | 202750 | 230541
13 | 51:13.67 | 5:30.02 | 230542 | 255293
14 | 56:43.69 | 3:33.56 | 255294 | 271324
15 | 60:17.50 | 4:58.69 | 271325 | 293743
16 | 65:16.44 | 7:36.44 | 293744 | 327987
Track 1
Filename D:\ssagwebster\Dizzy Gillespie - Four Classic Albums (2CD, 2009)\CD2\01. Dizzy's Business.wav
Pre-gap length 0:00:02.00
Peak level 86.7 %
Extraction speed 1.7 X
Track quality 99.9 %
Test CRC D105062E
Copy CRC D105062E
Cannot be verified as accurate (confidence 9) [E66153BE], AccurateRip returned [CDE19E45] (AR v2)
Copy OK
Track 2
Filename D:\ssagwebster\Dizzy Gillespie - Four Classic Albums (2CD, 2009)\CD2\02. Jessica's Day.wav
Peak level 86.4 %
Extraction speed 2.2 X
Track quality 100.0 %
Test CRC 5F66AEDC
Copy CRC 5F66AEDC
Cannot be verified as accurate (confidence 9) [56BAAAD3], AccurateRip returned [9741E397] (AR v2)
Copy OK
Track 3
Filename D:\ssagwebster\Dizzy Gillespie - Four Classic Albums (2CD, 2009)\CD2\03. Tour De Force.wav
Peak level 96.6 %
Extraction speed 2.4 X
Track quality 100.0 %
Test CRC 65DD9ACC
Copy CRC 65DD9ACC
Cannot be verified as accurate (confidence 9) [D3B605E0], AccurateRip returned [1C915A7C] (AR v2)
Copy OK
Track 4
Filename D:\ssagwebster\Dizzy Gillespie - Four Classic Albums (2CD, 2009)\CD2\04. I Can't Get Started.wav
Peak level 74.9 %
Extraction speed 2.0 X
Track quality 99.9 %
Test CRC EEAC3D15
Copy CRC EEAC3D15
Cannot be verified as accurate (confidence 9) [FEB37558], AccurateRip returned [C61ADFBB] (AR v2)
Copy OK
Track 5
Filename D:\ssagwebster\Dizzy Gillespie - Four Classic Albums (2CD, 2009)\CD2\05. Doodlin'.wav
Peak level 88.8 %
Extraction speed 2.6 X
Track quality 100.0 %
Test CRC 3B645CB8
Copy CRC 3B645CB8
Cannot be verified as accurate (confidence 9) [F95714E9], AccurateRip returned [635E6A78] (AR v2)
Copy OK
Track 6
Filename D:\ssagwebster\Dizzy Gillespie - Four Classic Albums (2CD, 2009)\CD2\06. Night In Tunisia.wav
Peak level 91.1 %
Extraction speed 2.9 X
Track quality 100.0 %
Test CRC AFDC7158
Copy CRC AFDC7158
Cannot be verified as accurate (confidence 9) [18EA621A], AccurateRip returned [03589D36] (AR v2)
Copy OK
Track 7
Filename D:\ssagwebster\Dizzy Gillespie - Four Classic Albums (2CD, 2009)\CD2\07. Stella By Starlight.wav
Peak level 90.1 %
Extraction speed 2.9 X
Track quality 100.0 %
Test CRC 2EF15FB0
Copy CRC 2EF15FB0
Cannot be verified as accurate (confidence 9) [0C2075A7], AccurateRip returned [5740CEEE] (AR v2)
Copy OK
Track 8
Filename D:\ssagwebster\Dizzy Gillespie - Four Classic Albums (2CD, 2009)\CD2\08. The Champ.wav
Peak level 89.5 %
Extraction speed 2.8 X
Track quality 99.9 %
Test CRC 44AF68D2
Copy CRC 44AF68D2
Cannot be verified as accurate (confidence 9) [90200C1D], AccurateRip returned [F05485C9] (AR v2)
Copy OK
Track 9
Filename D:\ssagwebster\Dizzy Gillespie - Four Classic Albums (2CD, 2009)\CD2\09. My Reverie.wav
Peak level 58.5 %
Extraction speed 3.0 X
Track quality 100.0 %
Test CRC 3D031103
Copy CRC 3D031103
Cannot be verified as accurate (confidence 9) [B50A1E9D], AccurateRip returned [F3F1BDA3] (AR v2)
Copy OK
Track 10
Filename D:\ssagwebster\Dizzy Gillespie - Four Classic Albums (2CD, 2009)\CD2\10. Dizzy's Blues.wav
Peak level 100.0 %
Extraction speed 3.0 X
Track quality 100.0 %
Test CRC 11C9E36B
Copy CRC 11C9E36B
Cannot be verified as accurate (confidence 9) [4F0DE8FF], AccurateRip returned [BE7CAEB7] (AR v2)
Copy OK
Track 11
Filename D:\ssagwebster\Dizzy Gillespie - Four Classic Albums (2CD, 2009)\CD2\11. Emanon.wav
Peak level 78.0 %
Extraction speed 3.0 X
Track quality 99.9 %
Test CRC 6E0164DC
Copy CRC 6E0164DC
Cannot be verified as accurate (confidence 9) [C7EC24A7], AccurateRip returned [7872C05F] (AR v2)
Copy OK
Track 12
Filename D:\ssagwebster\Dizzy Gillespie - Four Classic Albums (2CD, 2009)\CD2\12. Ool-Ya-Koo.wav
Peak level 82.3 %
Extraction speed 3.7 X
Track quality 100.0 %
Test CRC 6AC23AF2
Copy CRC 6AC23AF2
Cannot be verified as accurate (confidence 9) [EE113899], AccurateRip returned [97DDFE70] (AR v2)
Copy OK
Track 13
Filename D:\ssagwebster\Dizzy Gillespie - Four Classic Albums (2CD, 2009)\CD2\13. Stay On It.wav
Peak level 84.1 %
Extraction speed 3.4 X
Track quality 99.9 %
Test CRC 8BA60177
Copy CRC 8BA60177
Cannot be verified as accurate (confidence 9) [898FC9E4], AccurateRip returned [E68C2A3D] (AR v2)
Copy OK
Track 14
Filename D:\ssagwebster\Dizzy Gillespie - Four Classic Albums (2CD, 2009)\CD2\14. Good Bait.wav
Peak level 84.1 %
Extraction speed 3.6 X
Track quality 100.0 %
Test CRC D7435AC2
Copy CRC D7435AC2
Cannot be verified as accurate (confidence 9) [B89C8D1E], AccurateRip returned [964EBBE9] (AR v2)
Copy OK
Track 15
Filename D:\ssagwebster\Dizzy Gillespie - Four Classic Albums (2CD, 2009)\CD2\15. One Bass Hit.wav
Peak level 78.5 %
Extraction speed 3.9 X
Track quality 100.0 %
Test CRC 32886C51
Copy CRC 32886C51
Cannot be verified as accurate (confidence 9) [88CB5A0D], AccurateRip returned [450AEA29] (AR v2)
Copy OK
Track 16
Filename D:\ssagwebster\Dizzy Gillespie - Four Classic Albums (2CD, 2009)\CD2\16. Manteca.wav
Peak level 77.0 %
Extraction speed 4.3 X
Track quality 100.0 %
Test CRC 401DFAD6
Copy CRC 401DFAD6
Cannot be verified as accurate (confidence 9) [B18FAA8E], AccurateRip returned [1B103AD2] (AR v2)
Copy OK
No tracks could be verified as accurate
You may have a different pressing from the one(s) in the database
No errors occurred
End of status report
==== Log checksum EB74296AF18BA3DB063F95023E7453BEFA8969DB40F53A8139EB81ABE591A67A ====
Время раздачи: c 15:00 до 22:00 (до появления первых 3-5 скачавших)-

Поглощение/вытеснение
Только с согласия релизера

Beijing65

If you like the topic, please click share to help develop our site.

To download the file disable ad blocking, and reload the page.

disable adblock How to disable ad blocking?

Download by magnet link 734 MB Download Torrent

Login using:

Similar topics



   
Current time is: 20-Jun 18:37 :: All times are UTC + 3