- Ray Brown - Ultimate Ray Brown Selected by Christian McBride (1999) Verve Records - Жанр: Mainstream Jazz
Издание: Verve Records - 314 559 705-2
Продолжительность: 01:10:20
Кодек: FLAC (tracks+.cue)
Битрейт: Lossless
Источник (релизер): mikeseneca
Страна-производитель диска: USA
Наличие сканов в содержимом раздачи: да
Треклист:
01. Solo for Unaccompanied Bass [2:32]
02. Tricotism [3:57]
03. Tangerine [3:20]
04. Much in Common [3:56]
05. My One and Only Love [4:00]
06. Bric-a-Brac [5:36]
07. The Gravy Waltz [4:30]
08. Gravy Blues [3:34]
09. Will You Still Be Mine? [3:44]
10. Lined with a Groove [5:36]
11. Everything I Have Is Yours [4:30]
12. Cool Walk [6:35]
13. I Just Can't Fool Myself [6:20]
14. Baubles, Bangles, and Beads [3:33]
15. All of You [4:00]
16. Indiana [4:36]

Отчёт EAC:

Exact Audio Copy V1.3 from 2. September 2016
EAC extraction logfile from 11. January 2019, 14:56
Ray Brown / Ultimate Ray Brown
Used drive : PIONEER DVD-RW DVR-112L Adapter: 1 ID: 3
Read mode : Secure
Utilize accurate stream : Yes
Defeat audio cache : Yes
Make use of C2 pointers : No
Read offset correction : 48
Overread into Lead-In and Lead-Out : No
Fill up missing offset samples with silence : Yes
Delete leading and trailing silent blocks : No
Null samples used in CRC calculations : Yes
Used interface : Native Win32 interface for Win NT & 2000
Gap handling : Appended to previous track
Used output format : User Defined Encoder
Selected bitrate : 896 kBit/s
Quality : High
Add ID3 tag : No
Command line compressor : C:\Program Files (x86)\Exact Audio Copy\Flac\flac.exe
Additional command line options : -4 -V -T "TITLE=%title%" -T "ARTIST=%artist%" -T "ALBUMARTIST=%albumartist%" -T "ALBUM=%albumtitle%" -T "DATE=%year%" -T "TRACKNUMBER=%tracknr%" -T "TRACKTOTAL=%numtracks%" -T "GENRE=%genre%" -T "COMMENT=%comment%" -T "PERFORMER=%albuminterpret%" -T "COMPOSER=%composer%" %source% -o %dest%
TOC of the extracted CD
Track | Start | Length | Start sector | End sector
---------------------------------------------------------
1 | 0:00.00 | 2:32.25 | 0 | 11424
2 | 2:32.25 | 3:57.20 | 11425 | 29219
3 | 6:29.45 | 3:20.25 | 29220 | 44244
4 | 9:49.70 | 3:56.37 | 44245 | 61981
5 | 13:46.32 | 4:00.20 | 61982 | 80001
6 | 17:46.52 | 5:35.43 | 80002 | 105169
7 | 23:22.20 | 4:29.55 | 105170 | 125399
8 | 27:52.00 | 3:33.55 | 125400 | 141429
9 | 31:25.55 | 3:43.47 | 141430 | 158201
10 | 35:09.27 | 5:35.58 | 158202 | 183384
11 | 40:45.10 | 4:30.25 | 183385 | 203659
12 | 45:15.35 | 6:34.47 | 203660 | 233256
13 | 51:50.07 | 6:19.60 | 233257 | 261741
14 | 58:09.67 | 3:33.15 | 261742 | 277731
15 | 61:43.07 | 4:00.35 | 277732 | 295766
16 | 65:43.42 | 4:36.35 | 295767 | 316501
Track 1
Filename D:\Ray Brown - Ultimate Ray Brown Selected by Christian McBride (1999)\01 Solo for Unaccompanied Bass.wav
Pre-gap length 0:00:02.00
Peak level 99.0 %
Extraction speed 4.4 X
Track quality 100.0 %
Test CRC D9E263E8
Copy CRC D9E263E8
Accurately ripped (confidence 2) [AD983790] (AR v2)
Copy OK
Track 2
Filename D:\Ray Brown - Ultimate Ray Brown Selected by Christian McBride (1999)\02 Tricotism (with Milt Jackson).wav
Pre-gap length 0:00:03.53
Peak level 83.1 %
Extraction speed 5.1 X
Track quality 100.0 %
Test CRC 4B373803
Copy CRC 4B373803
Accurately ripped (confidence 2) [B2468F3F] (AR v2)
Copy OK
Track 3
Filename D:\Ray Brown - Ultimate Ray Brown Selected by Christian McBride (1999)\03 Tangerine.wav
Pre-gap length 0:00:03.55
Peak level 77.5 %
Extraction speed 5.4 X
Track quality 100.0 %
Test CRC 1B9478E1
Copy CRC 1B9478E1
Accurately ripped (confidence 2) [C3D832A9] (AR v2)
Copy OK
Track 4
Filename D:\Ray Brown - Ultimate Ray Brown Selected by Christian McBride (1999)\04 Much in Common (with Milt Jackson).wav
Pre-gap length 0:00:04.25
Peak level 90.3 %
Extraction speed 5.9 X
Track quality 100.0 %
Test CRC F489D145
Copy CRC F489D145
Accurately ripped (confidence 2) [F1988286] (AR v2)
Copy OK
Track 5
Filename D:\Ray Brown - Ultimate Ray Brown Selected by Christian McBride (1999)\05 My One and Only Love (with Milt Jackson).wav
Pre-gap length 0:00:03.55
Peak level 52.1 %
Extraction speed 6.2 X
Track quality 100.0 %
Test CRC 687A90B1
Copy CRC 687A90B1
Accurately ripped (confidence 2) [CE660609] (AR v2)
Copy OK
Track 6
Filename D:\Ray Brown - Ultimate Ray Brown Selected by Christian McBride (1999)\06 Bric-a-Brac.wav
Pre-gap length 0:00:04.25
Peak level 76.9 %
Extraction speed 6.9 X
Track quality 100.0 %
Test CRC 6FDADB6B
Copy CRC 6FDADB6B
Accurately ripped (confidence 2) [97041D37] (AR v2)
Copy OK
Track 7
Filename D:\Ray Brown - Ultimate Ray Brown Selected by Christian McBride (1999)\07 The Gravy Waltz (with Oscar Peterson).wav
Pre-gap length 0:00:04.15
Peak level 89.4 %
Extraction speed 7.1 X
Track quality 100.0 %
Test CRC 626428B6
Copy CRC 626428B6
Accurately ripped (confidence 2) [33494D96] (AR v2)
Copy OK
Track 8
Filename D:\Ray Brown - Ultimate Ray Brown Selected by Christian McBride (1999)\08 Gravy Blues (with Milt Jackson).wav
Pre-gap length 0:00:03.55
Peak level 99.9 %
Extraction speed 7.2 X
Track quality 100.0 %
Test CRC 383D5D03
Copy CRC 383D5D03
Accurately ripped (confidence 2) [9F4153E4] (AR v2)
Copy OK
Track 9
Filename D:\Ray Brown - Ultimate Ray Brown Selected by Christian McBride (1999)\09 Will You Still Be Mine.wav
Pre-gap length 0:00:03.55
Peak level 98.5 %
Extraction speed 7.5 X
Track quality 100.0 %
Test CRC 639FDA7D
Copy CRC 639FDA7D
Accurately ripped (confidence 2) [48139D41] (AR v2)
Copy OK
Track 10
Filename D:\Ray Brown - Ultimate Ray Brown Selected by Christian McBride (1999)\10 Lined With a Groove (with Milt Jackson).wav
Pre-gap length 0:00:04.37
Peak level 83.1 %
Extraction speed 8.1 X
Track quality 100.0 %
Test CRC 0BB3BD6D
Copy CRC 0BB3BD6D
Accurately ripped (confidence 2) [2C9235EA] (AR v2)
Copy OK
Track 11
Filename D:\Ray Brown - Ultimate Ray Brown Selected by Christian McBride (1999)\11 Everything I Have Is Yours.wav
Pre-gap length 0:00:03.55
Peak level 80.8 %
Extraction speed 8.2 X
Track quality 100.0 %
Test CRC 5958A42F
Copy CRC 5958A42F
Accurately ripped (confidence 2) [CE2BC873] (AR v2)
Copy OK
Track 12
Filename D:\Ray Brown - Ultimate Ray Brown Selected by Christian McBride (1999)\12 Cool Walk.wav
Pre-gap length 0:00:05.55
Peak level 75.8 %
Extraction speed 8.9 X
Track quality 100.0 %
Test CRC 701FC18B
Copy CRC 701FC18B
Accurately ripped (confidence 2) [CD743C7E] (AR v2)
Copy OK
Track 13
Filename D:\Ray Brown - Ultimate Ray Brown Selected by Christian McBride (1999)\13 I Just Can't Fool Myself (with Milt Jackson).wav
Pre-gap length 0:00:04.55
Peak level 89.4 %
Extraction speed 8.6 X
Track quality 99.9 %
Test CRC 690BD8EA
Copy CRC 690BD8EA
Accurately ripped (confidence 2) [5FB3725E] (AR v2)
Copy OK
Track 14
Filename D:\Ray Brown - Ultimate Ray Brown Selected by Christian McBride (1999)\14 Baubles, Bangles, and Beads (with Milt Jackson).wav
Pre-gap length 0:00:03.52
Peak level 75.9 %
Extraction speed 8.9 X
Track quality 100.0 %
Test CRC CE6459D3
Copy CRC CE6459D3
Accurately ripped (confidence 2) [9ED7F934] (AR v2)
Copy OK
Track 15
Filename D:\Ray Brown - Ultimate Ray Brown Selected by Christian McBride (1999)\15 All of You.wav
Pre-gap length 0:00:03.55
Peak level 96.2 %
Extraction speed 9.3 X
Track quality 100.0 %
Test CRC 05566EE7
Copy CRC 05566EE7
Accurately ripped (confidence 2) [CA40FCFA] (AR v2)
Copy OK
Track 16
Filename D:\Ray Brown - Ultimate Ray Brown Selected by Christian McBride (1999)\16 Indiana.wav
Pre-gap length 0:00:04.37
Peak level 74.3 %
Extraction speed 9.7 X
Track quality 100.0 %
Test CRC 7F48A8A8
Copy CRC 7F48A8A8
Accurately ripped (confidence 4) [F10545D9] (AR v1)
Copy OK
All tracks accurately ripped
No errors occurred
End of status report
---- CUETools DB Plugin V2.1.6
[CTDB TOCID: I5tk7f9oVvRirO5x1DbreeQqYF0-] found
Submit result: I5tk7f9oVvRirO5x1DbreeQqYF0- has been confirmed
Track | CTDB Status
1 | (7/7) Accurately ripped
2 | (7/7) Accurately ripped
3 | (7/7) Accurately ripped
4 | (7/7) Accurately ripped
5 | (7/7) Accurately ripped
6 | (7/7) Accurately ripped
7 | (7/7) Accurately ripped
8 | (7/7) Accurately ripped
9 | (7/7) Accurately ripped
10 | (7/7) Accurately ripped
11 | (7/7) Accurately ripped
12 | (7/7) Accurately ripped
13 | (7/7) Accurately ripped
14 | (7/7) Accurately ripped
15 | (7/7) Accurately ripped
16 | (7/7) Accurately ripped
==== Log checksum 80D26F3A108460E33A6D5F05A58498ED4412DE97AE223A1ED29E769A8401CD76 ====
Время раздачи: c 15:00 до 22:00 (до появления первых 3-5 скачавших)-

Поглощение/вытеснение
Только с согласия релизера

Beijing65

If you like the topic, please click share to help develop our site.

To download the file disable ad blocking, and reload the page.

disable adblock How to disable ad blocking?

Download by magnet link 310 MB Download Torrent

Login using:

Similar topics



   
Current time is: 20-Jun 19:11 :: All times are UTC + 3