Название: Любовь с уведомлением
Оригинальное название: Two Weeks Notice
Год выхода: 2002
Производство: США, Австралия / Castle Rock Entertainment, Village Roadshow Pictures, NPV Entertainment
Жанр: Kомедия, мелодрама
Продолжительность: 01:41:12
Режиссер: Марк Лоуренс
В ролях: Сандра Баллок, Хью Грант, Алисия Уитт, Дэйна Айви, Роберт Клайн, Хезер Бёрнс, Дэвид Хэйг, Дориан Миссик, Джозеф Бадалуччо, Джонатан Докучитц, Винни Кокс, Фрэнси Свифт, Либби Уэст, Нора Джонс
Описание: Джордж Уэйд и шага не может сделать без Люси Келсон, работающей главным консультантом в его корпорации. Однако обращается он с ней скорее как с няней, а не как с блестящим юристом, окончившим Гарвард. По прошествии года все это надоедает Люси, и она решает уволиться. Джордж соглашается ее отпустить, но с одним условием - она должна найти себе достойную замену. Келсон останавливает свой выбор на амбициозной Джун, которая имеет виды на своего нового босса. Освободившись от Уэйда и его бесконечных просьб, Люси решает изменить свою жизнь. И вот тогда, поняв, что бывшая подчиненная может навсегда исчезнуть с его горизонта, Джордж наконец-то признается ей в любви…
Качество: BDRip 1080p-HEVC
Видео: HEVC/H.265, 1920x1080, ~11,5 Mbps, 10 bit
Аудио 01: AC3, 6 ch, 384 Kbps | Русский, Дублированный
Аудио 02: AC3, 6 ch, 448 Kbps | Английский, Оригинал
Субтитры: Русские (форсированные, полные), английские (полные)

Релиз от: [email protected] & NoMaD

Mediainfo

Общее
Уникальный идентификатор : 206149535982463831990327145338301430922 (0x9B16F4D90E68DA352BC99CA88C79BC8A)
Полное имя : Любовь с уведомлением (2002) BDRip 1080p [HEVC] 10 bit.mkv
Формат : Matroska
Версия формата : Version 4
Размер файла : 8,74 Гбайт
Продолжительность : 1 ч. 41 м.
Общий поток : 12,4 Мбит/сек
Название фильма : Любовь с уведомлением (2002) Encoded_by_NoMaD
Дата кодирования : UTC 2019-03-18 03:25:38
Программа кодирования : mkvmerge v28.0.0 ('Voice In My Head') 64-bit
Библиотека кодирования : libebml v1.3.6 + libmatroska v1.4.9
Attachments : poster.jpg
Видео
Идентификатор : 1
Формат : HEVC
Формат/Информация : High Efficiency Video Coding
Профиль формата : Main [email protected]@Main
Идентификатор кодека : V_MPEGH/ISO/HEVC
Продолжительность : 1 ч. 41 м.
Битрейт : 11,5 Мбит/сек
Ширина : 1920 пикселей
Высота : 1080 пикселей
Соотношение сторон : 16:9
Режим частоты кадров : Постоянный
Частота кадров : 23,976 (24000/1001) кадра/сек
Цветовое пространство : YUV
Субдискретизация насыщенности : 4:2:0
Битовая глубина : 10 бит
Бит/(Пиксели*Кадры) : 0.232
Размер потока : 8,15 Гбайт (93%)
Заголовок : Любовь с уведомлением (2002) Encoded_by_NoMaD
Библиотека кодирования : x265 2.9+9-f74003e88622:[Windows][GCC 8.2.0][64 bit] 10bit
Настройки программы : cpuid=1111039 / frame-threads=9 / numa-pools=8 / wpp / no-pmode / no-pme / no-psnr / no-ssim / log-level=3 / input-csp=1 / input-res=1920x1080 / interlace=0 / total-frames=0 / level-idc=0 / high-tier=1 / uhd-bd=0 / ref=4 / allow-non-conformance / no-repeat-headers / annexb / no-aud / no-hrd / info / hash=0 / no-temporal-layers / open-gop / min-keyint=24 / keyint=240 / gop-lookahead=0 / bframes=12 / b-adapt=2 / b-pyramid / bframe-bias=0 / rc-lookahead=40 / lookahead-slices=6 / scenecut=40 / radl=0 / no-intra-refresh / ctu=32 / min-cu-size=8 / rect / no-amp / max-tu-size=32 / tu-inter-depth=1 / tu-intra-depth=1 / limit-tu=0 / rdoq-level=0 / dynamic-rd=0.00 / no-ssim-rd / signhide / no-tskip / nr-intra=0 / nr-inter=0 / no-constrained-intra / no-strong-intra-smoothing / max-merge=5 / limit-refs=3 / no-limit-modes / me=3 / subme=7 / merange=57 / temporal-mvp / weightp / weightb / no-analyze-src-pics / deblock=-3:-3 / no-sao / no-sao-non-deblock / rd=6 / no-early-skip / no-rskip / no-fast-intra / no-tskip-fast / no-cu-lossless / no-b-intra / no-splitrd-skip / rdpenalty=0 / psy-rd=2.00 / psy-rdoq=0.00 / no-rd-refine / no-lossless / cbqpoffs=0 / crqpoffs=0 / rc=crf / crf=20.0 / qcomp=0.60 / qpstep=4 / stats-write=0 / stats-read=0 / ipratio=1.40 / pbratio=1.30 / aq-mode=3 / aq-strength=1.00 / no-cutree / zone-count=0 / no-strict-cbr / qg-size=32 / no-rc-grain / qpmax=69 / qpmin=0 / no-const-vbv / sar=1 / overscan=0 / videoformat=5 / range=0 / colorprim=1 / transfer=1 / colormatrix=1 / chromaloc=0 / display-window=0 / max-cll=0,0 / min-luma=0 / max-luma=1023 / log2-max-poc-lsb=8 / vui-timing-info / vui-hrd-info / slices=1 / no-opt-qp-pps / no-opt-ref-list-length-pps / no-multi-pass-opt-rps / scenecut-bias=0.05 / no-opt-cu-delta-qp / no-aq-motion / no-hdr / no-hdr-opt / no-dhdr10-opt / no-idr-recovery-sei / analysis-reuse-level=5 / scale-factor=0 / refine-intra=0 / refine-inter=0 / refine-mv=0 / no-limit-sao / ctu-info=0 / no-lowpass-dct / refine-mv-type=0 / copy-pic=1 / max-ausize-factor=1.0 / no-dynamic-refine / no-single-sei
Язык : English
Default : Да
Forced : Нет
Цветовой диапазон : Limited
Основные цвета : BT.709
Характеристики трансфера : BT.709
Коэффициенты матрицы : BT.709
Аудио #1
Идентификатор : 2
Формат : AC-3
Формат/Информация : Audio Coding 3
Коммерческое название : Dolby Digital
Идентификатор кодека : A_AC3
Продолжительность : 1 ч. 41 м.
Вид битрейта : Постоянный
Битрейт : 384 Кбит/сек
Каналы : 6 каналов
Channel layout : L R C LFE Ls Rs
Частота : 48,0 КГц
Частота кадров : 31,250 кадров/сек (1536 SPF)
Битовая глубина : 16 бит
Метод сжатия : С потерями
Размер потока : 278 Мбайт (3%)
Заголовок : Дубляж (iTunes)
Язык : Russian
Default : Да
Forced : Нет
Аудио #2
Идентификатор : 3
Формат : AC-3
Формат/Информация : Audio Coding 3
Коммерческое название : Dolby Digital
Идентификатор кодека : A_AC3
Продолжительность : 1 ч. 41 м.
Вид битрейта : Постоянный
Битрейт : 448 Кбит/сек
Каналы : 6 каналов
Channel layout : L R C LFE Ls Rs
Частота : 48,0 КГц
Частота кадров : 31,250 кадров/сек (1536 SPF)
Битовая глубина : 16 бит
Метод сжатия : С потерями
Размер потока : 324 Мбайт (4%)
Заголовок : Оригинал
Язык : English
Default : Нет
Forced : Нет
Текст #1
Идентификатор : 4
Формат : UTF-8
Идентификатор кодека : S_TEXT/UTF8
Идентификатор кодека/Информация : UTF-8 Plain Text
Продолжительность : 1 ч. 25 м.
Битрейт : 0 бит/сек
ElementCount : 16
Размер потока : 536 байт (0%)
Заголовок : Rus Forced
Язык : Russian
Default : Да
Forced : Да
Текст #2
Идентификатор : 5
Формат : UTF-8
Идентификатор кодека : S_TEXT/UTF8
Идентификатор кодека/Информация : UTF-8 Plain Text
Продолжительность : 1 ч. 33 м.
Битрейт : 127 бит/сек
ElementCount : 1383
Размер потока : 87,4 Кбайт (0%)
Заголовок : Rus Full
Язык : Russian
Default : Нет
Forced : Нет
Текст #3
Идентификатор : 6
Формат : UTF-8
Идентификатор кодека : S_TEXT/UTF8
Идентификатор кодека/Информация : UTF-8 Plain Text
Продолжительность : 1 ч. 33 м.
Битрейт : 83 бит/сек
ElementCount : 1402
Размер потока : 57,2 Кбайт (0%)
Заголовок : Eng Full
Язык : English
Default : Нет
Forced : Нет
Меню
00:00:00.000 : en:00:00:00.000
00:02:21.558 : en:00:02:21.558
00:04:31.396 : en:00:04:31.396
00:06:44.862 : en:00:06:44.862
00:11:11.921 : en:00:11:11.921
00:15:11.535 : en:00:15:11.535
00:20:27.100 : en:00:20:27.100
00:23:39.751 : en:00:23:39.751
00:28:48.768 : en:00:28:48.768
00:31:41.232 : en:00:31:41.232
00:35:41.305 : en:00:35:41.305
00:39:27.865 : en:00:39:27.865
00:41:01.500 : en:00:41:01.500
00:43:32.318 : en:00:43:32.318
00:49:05.525 : en:00:49:05.525
00:53:39.299 : en:00:53:39.299
00:55:57.896 : en:00:55:57.896
01:00:18.906 : en:01:00:18.906
01:04:41.794 : en:01:04:41.794
01:08:31.190 : en:01:08:31.190
01:14:14.992 : en:01:14:14.992
01:15:49.211 : en:01:15:49.211
01:19:52.120 : en:01:19:52.120
01:23:12.946 : en:01:23:12.946
01:25:17.112 : en:01:25:17.112
01:28:09.325 : en:01:28:09.325
01:32:33.256 : en:01:32:33.256
01:36:14.977 : en:01:36:14.977


If you like the topic, please click share to help develop our site.

To download the file disable ad blocking, and reload the page.

disable adblock How to disable ad blocking?

Download by magnet link 8.74 GB Download Torrent

Login using:

Similar topics

Чувства / Les sentiments (2003) HDRip 720p | Sub
 1.73 GB   0 | 0   22-Sep-16 18:36   38
Шалопай / Mischief (1985) WEBRip 1080p | P2
 8.7 GB   0 | 0   27-May-17 19:00   20
Доводы рассудка / Persuasion (2007) BDRip 720p | P
 7.18 GB   3 | 0   27-Nov-17 02:30   11
Только ты / Only You (1992) WEBRip 1080p | P
 9.38 GB   0 | 0   21-Jan-17 15:39   9
Муж парикмахерши / Le mari de la coiffeuse (1990) BDRip 1080p
 6.04 GB   0 | 0   02-Jun-16 18:34   8


   
Current time is: 16-Jun 00:07 :: All times are UTC + 3