Alphonse Mouzon / The Essence Of Mystery
Жанр: Fusion, Jazz-Funk, Jazz-Rock
Носитель: CD
Страна-производитель диска (релиза): Japan
Год издания: 1998
Издатель (лейбл): Blue Note
Номер по каталогу: TOCJ-6286
Аудиокодек: FLAC (*.flac)
Тип рипа: tracks+.cue
Битрейт аудио: lossless
Продолжительность: 00:44:28
Источник: awaxhome
Наличие сканов в содержимом раздачи: да
Треклист:
1 The Essence Of Mystery 5:00
2 Funky Finger 3:41
3 Crying Angels 6:23
4 Why Can't We Make It 3:37
5 Macrobian 5:15
6 Spring Water 6:24
7 Sunflower 4:23
8 Thank You Lord 5:04
9 Antonia 4:40

Лог создания рипа

Exact Audio Copy V0.99 prebeta 4 from 23. January 2008
EAC extraction logfile from 11. August 2008, 19:06
Alphonse Mouzon / The Essence Of Mystery
Used drive : HP DVD Writer 640b Adapter: 4 ID: 0
Read mode : SecureUtilize accurate stream : YesDefeat audio cache : YesMake use of C2 pointers : No
Read offset correction : 102Overread into Lead-In and Lead-Out : NoFill up missing offset samples with silence : YesDelete leading and trailing silent blocks : NoNull samples used in CRC calculations : YesUsed interface : Installed external ASPI interfaceGap handling : Not detected, thus appended to previous track
Used output format : User Defined EncoderSelected bitrate : 320 kBit/sQuality : HighAdd ID3 tag : NoCommand line compressor : C:\Program Files\Exact Audio Copy\FLAC\FLAC.EXEAdditional command line options : -6 -V -T "ARTIST=%a" -T "TITLE=%t" -T "ALBUM=%g" -T "DATE=%y" -T "TRACKNUMBER=%n" -T "GENRE=%m" -T "COMMENT=%e" %s -o %d
TOC of the extracted CD
Track | Start | Length | Start sector | End sector --------------------------------------------------------- 1 | 0:00.00 | 4:59.60 | 0 | 22484 2 | 4:59.60 | 3:41.02 | 22485 | 39061 3 | 8:40.62 | 6:22.30 | 39062 | 67741 4 | 15:03.17 | 3:37.58 | 67742 | 84074 5 | 18:41.00 | 5:17.37 | 84075 | 107886 6 | 23:58.37 | 6:24.38 | 107887 | 136724 7 | 30:23.00 | 4:23.07 | 136725 | 156456 8 | 34:46.07 | 5:05.35 | 156457 | 179366 9 | 39:51.42 | 4:40.08 | 179367 | 200374
Track 1
Filename C:\Upload\Alphonse Mouzon - The essence of mystery\01 - The Essence Of Mystery.wav
Peak level 92.2 % Track quality 100.0 % Copy CRC 74CB2547 Track not present in AccurateRip database Copy OK
Track 2
Filename C:\Upload\Alphonse Mouzon - The essence of mystery\02 - Funky Finger.wav
Peak level 99.0 % Track quality 100.0 % Copy CRC A74BB7F6 Track not present in AccurateRip database Copy OK
Track 3
Filename C:\Upload\Alphonse Mouzon - The essence of mystery\03 - Crying Angels.wav
Peak level 87.8 % Track quality 100.0 % Copy CRC 19A065F5 Track not present in AccurateRip database Copy OK
Track 4
Filename C:\Upload\Alphonse Mouzon - The essence of mystery\04 - Why Can't We Make It.wav
Peak level 88.5 % Track quality 100.0 % Copy CRC 42473F0E Track not present in AccurateRip database Copy OK
Track 5
Filename C:\Upload\Alphonse Mouzon - The essence of mystery\05 - Macrobian.wav
Peak level 93.4 % Track quality 100.0 % Copy CRC 3F26ADF6 Track not present in AccurateRip database Copy OK
Track 6
Filename C:\Upload\Alphonse Mouzon - The essence of mystery\06 - Spring Water.wav
Peak level 89.3 % Track quality 99.9 % Copy CRC A2378BC9 Track not present in AccurateRip database Copy OK
Track 7
Filename C:\Upload\Alphonse Mouzon - The essence of mystery\07 - Sunflower.wav
Peak level 100.0 % Track quality 100.0 % Copy CRC BB5AFAFC Track not present in AccurateRip database Copy OK
Track 8
Filename C:\Upload\Alphonse Mouzon - The essence of mystery\08 - Thank You Load.wav
Peak level 100.0 % Track quality 100.0 % Copy CRC F400D664 Track not present in AccurateRip database Copy OK
Track 9
Filename C:\Upload\Alphonse Mouzon - The essence of mystery\09 - Antonia.wav
Peak level 84.9 % Track quality 100.0 % Copy CRC DC57D375 Track not present in AccurateRip database Copy OK
None of the tracks are present in the AccurateRip database
No errors occurred
End of status report

Содержание индексной карты (.CUE)

REM GENRE JazzREM DATE 1972REM DISCID 600A6F09REM COMMENT "ExactAudioCopy v0.99pb4"PERFORMER "Alphonze Mouzon"TITLE "The Essence Of Mystery"FILE "01 - The Essence Of Mystery.flac" WAVE  TRACK 01 AUDIO    TITLE "The Essence Of Mystery"    PERFORMER "Alphonze Mouzon"    INDEX 01 00:00:00    INDEX 02 04:59:24FILE "02 - Funky Finger.flac" WAVE  TRACK 02 AUDIO    TITLE "Funky Finger"    PERFORMER "Alphonze Mouzon"    INDEX 01 00:00:00FILE "03 - Crying Angels.flac" WAVE  TRACK 03 AUDIO    TITLE "Crying Angels"    PERFORMER "Alphonze Mouzon"    INDEX 01 00:00:00FILE "04 - Why Can't We Make It.flac" WAVE  TRACK 04 AUDIO    TITLE "Why Can't We Make It"    PERFORMER "Alphonze Mouzon"    INDEX 01 00:00:00  TRACK 05 AUDIO    TITLE "Macrobian"    PERFORMER "Alphonze Mouzon"    INDEX 00 03:37:25FILE "05 - Macrobian.flac" WAVE    INDEX 01 00:00:00  TRACK 06 AUDIO    TITLE "Spring Water"    PERFORMER "Alphonze Mouzon"    INDEX 00 05:14:50FILE "06 - Spring Water.flac" WAVE    INDEX 01 00:00:00FILE "07 - Sunflower.flac" WAVE  TRACK 07 AUDIO    TITLE "Sunflower"    PERFORMER "Alphonze Mouzon"    INDEX 01 00:00:00  TRACK 08 AUDIO    TITLE "Thank You Load"    PERFORMER "Alphonze Mouzon"    INDEX 00 04:22:35FILE "08 - Thank You Load.flac" WAVE    INDEX 01 00:00:00  TRACK 09 AUDIO    TITLE "Antonia"    PERFORMER "Alphonze Mouzon"    INDEX 00 05:03:33FILE "09 - Antonia.flac" WAVE    INDEX 01 00:00:00

If you like the topic, please click share to help develop our site.

To download the file disable ad blocking, and reload the page.

disable adblock How to disable ad blocking?

Download by magnet link 288 MB Download Torrent

Login using:

Similar topics



   
Current time is: 20-Jun 19:12 :: All times are UTC + 3