Сокровища Европы. Германия / Trésors D'Europe. Allemagne
Год выпуска: 2017
Страна: Франция
Студия: Roche Productions Et Voyage
Жанр: документальный
Продолжительность: 00:51:36
Перевод: Профессиональный (двухголосый закадровый)
Режиссер: Julien Bur/Жульен Бюр
Описание: Германия - самая густонаселенная страна в Европе. Она подарила миру Гёте, Лютера и Канта, её вклад в европейскую культуру невозможно переоценить. Через 70 лет после падения нацизма Германия смогла возродиться к новой жизни, вернув былое великолепие своему историческому наследию. И тем не менее, многое из культурного наследия Германии полузабыто.
Сэмпл: http://multi-up.com/1227244
Тип релиза: HDTV 1080i
Контейнер: TS
Видео: AVC, PAL, 1920x1080, 16x9, 6405 Кbps, 25fps
Аудио: Русский, MP2, 2Ch, 48KHz, 192kbps
Аудио 2: French, MP2, 2Ch, 48KHz, 192kbps

MediaInfo

ОбщееИдентификатор                            : 1 (0x1)Полное имя                               : H:\Сокровища Европы.Allemagne.tsФормат                                   : MPEG-TSРазмер файла                             : 2,58 ГбайтПродолжительность                        : 51 м. 36 с.Режим общего битрейта                    : ПеременныйОбщий поток                              : 7146 Кбит/сек
ВидеоИдентификатор : 3001 (0xBB9)Идентификатор меню : 206 (0xCE)Формат : AVCФормат/Информация : Advanced Video CodecПрофиль формата : [email protected]Настройки формата : CABAC / 4 Ref FramesПараметр CABAC формата : ДаПараметр RefFrames формата : 4 кадраИдентификатор кодека : 27Продолжительность : 51 м. 36 с.Битрейт : 6405 Кбит/секШирина : 1920 пикселейВысота : 1080 пикселейСоотношение сторон : 16:9Частота кадров : 25,000 кадров/секЦветовое пространство : YUVСубдискретизация насыщенности : 4:2:0Битовая глубина : 8 битТип развёртки : MBAFFМетод сохранения типа развёртки : Чередующиеся поляПорядок развёртки : Верхнее поле первоеБит/(Пиксели*Кадры) : 0.124Размер потока : 2,31 Гбайт (90%)
Аудио #1Идентификатор : 3101 (0xC1D)Идентификатор меню : 206 (0xCE)Формат : MPEG AudioВерсия формата : Version 1Профиль формата : Layer 2Настройки формата : Joint stereo / Intensity Stereo + MS StereoИдентификатор кодека : 3Продолжительность : 51 м. 36 с.Вид битрейта : ПостоянныйБитрейт : 192 Кбит/секКаналы : 2 каналаЧастота : 48,0 КГцЧастота кадров : 41,667 кадра/сек (1152 SPF)Метод сжатия : С потерямиРазмер потока : 70,9 Мбайт (3%)Язык : Russian
Аудио #2Идентификатор : 3102 (0xC1E)Идентификатор меню : 206 (0xCE)Формат : MPEG AudioВерсия формата : Version 1Профиль формата : Layer 2Настройки формата : Joint stereo / Intensity Stereo + MS StereoИдентификатор кодека : 3Продолжительность : 51 м. 36 с.Вид битрейта : ПостоянныйБитрейт : 192 Кбит/секКаналы : 2 каналаЧастота : 48,0 КГцЧастота кадров : 41,667 кадра/сек (1152 SPF)Метод сжатия : С потерямиРазмер потока : 70,9 Мбайт (3%)Язык : English

Скриншоты


If you like the topic, please click share to help develop our site.

To download the file disable ad blocking, and reload the page.

disable adblock How to disable ad blocking?

Download by magnet link 2.58 GB Download Torrent

Login using:

Similar topics



   
Current time is: 16-Jul 21:52 :: All times are UTC + 3