quarter to three — quarter to three
  • Жанры: Free Improvisation | Vocal Jazz | Avant-Garde Jazz
  • Издатель: Polí5 (Czech Republic)
  • Номер по каталогу: EPP126-2
  • Релиз альбома: 06.02.2018
  • Аудио кодек: FLAC (.flac)
  • Битрейт аудио: lossless
  • Источник: bandcamp.com
  • Тип рипа: tracks
  • Формат: WEB
    .
  • track listing
    01 Nails and Wails [02:52]
    02 12 to 24 [05:20]
    03 A = 452 [05:36]
    04 High Noon [03:27]
    05 Animals With Little Legs [05:21]
    06 Quarter to Quarter [03:45]
    07 Kimei [04:33]
    08 Infinite Tonalities [08:09]
    09 Something Steve Will Come Up With [04:52]
    10 Night and Day and Night [03:12]
    11 Quarter to Seven [04:27]
    total length (00:51:29)

SPOILER

auCDtect

-----------------------
DON'T MODIFY THIS FILE
-----------------------
PERFORMER: auCDtect Task Manager, ver. 1.6.0 RC1 build 1.6.0.1Copyright (c) 2008-2010 y-soft. All rights reserved
ANALYZER: auCDtect: CD records authenticity detector, version 0.8.2Copyright (c) 2004 Oleg Berngardt. All rights reserved.Copyright (c) 2004 Alexander Djourik. All rights reserved.
FILE: 11. Quarter to Seven.flac Size: 23214484 Hash: BDF0B4A0ADD20D973623567FEAD1F76C Accuracy: -m0 Conclusion: CDDA 100% Signature: C6F87EBC69390240253946AD135638E0BB9E6F48FILE: 10. Night and Day and Night.flac Size: 15746293 Hash: 6965E80DEE1B488A43965D466CD6EC54 Accuracy: -m0 Conclusion: CDDA 100% Signature: 67CF264FDABC89F56C4565B4EB54BEB362E1AC19FILE: 09. Something Steve Will Come Up With.flac Size: 18918960 Hash: B0AA3A5E7E65227465E613F7B3848713 Accuracy: -m0 Conclusion: CDDA 100% Signature: 9B7C8193DF1D61B7C9451CB2CAF98BBB90669D26FILE: 08. Infinite Tonalities.flac Size: 47668633 Hash: 50DFA1D45187420107950910F7D3BFC1 Accuracy: -m0 Conclusion: CDDA 100% Signature: 614455D746EAA892B0BA44B1A5C1F6F52EF36135FILE: 07. Kimei.flac Size: 23032397 Hash: 2DD997A7F9DF3F4D840E0E9055FF6D66 Accuracy: -m0 Conclusion: CDDA 100% Signature: BB0FC69DF1CD9803894F4F33A1FCA1486F2D071EFILE: 06. Quarter to Quarter.flac Size: 21918788 Hash: C572483F980F1439D67606ED0601F5D8 Accuracy: -m0 Conclusion: CDDA 100% Signature: 1BFBF3DAF046AAE210DFABE49BB261FF0A8CF54BFILE: 05. Animals With Little Legs.flac Size: 30056495 Hash: 778E29A0B38A2677E0519AF612796648 Accuracy: -m0 Conclusion: CDDA 100% Signature: 6297712C4F5C958185BEABCAC8D5E3564DAA4873FILE: 04. High Noon.flac Size: 20801318 Hash: 26FBAE1353487E3CD1FA4924CF9AD44E Accuracy: -m0 Conclusion: CDDA 100% Signature: FF2EA7FA0344853C0A93A6094F3E5991482E0AC0FILE: 03. A = 452.flac Size: 30620780 Hash: BF16370AF89CAA863E3B7EDB50A8B53F Accuracy: -m0 Conclusion: CDDA 100% Signature: C82D79ACEC6075C5F914104220907B2F3062DE63FILE: 02. 12 to 24.flac Size: 25441308 Hash: 328B3D51B765ECB5AEF25C5FDD53A4EE Accuracy: -m0 Conclusion: CDDA 100% Signature: BA6FE61780386756EBE4640409A72B0D818F139AFILE: 01. Nails and Wails.flac Size: 14360845 Hash: 450652EB59FC159E366922F298261B09 Accuracy: -m0 Conclusion: CDDA 100% Signature: FEF8AA20C8C1D97A459AFC87AFE9AF3B00984D8F

DR

foobar2000 1.3.9 / Dynamic Range Meter 1.1.1log date: 2019-04-24 18:29:58
--------------------------------------------------------------------------------Analyzed: Quarter to Three / Quarter to Three--------------------------------------------------------------------------------
DR Peak RMS Duration Track--------------------------------------------------------------------------------DR6 -0.61 dB -12.14 dB 2:51 01-Nails and WailsDR12 -3.08 dB -20.48 dB 5:19 02-12 to 24DR11 -0.59 dB -15.36 dB 5:35 03-A = 452DR11 -0.66 dB -16.07 dB 3:26 04-High NoonDR11 -0.64 dB -17.25 dB 5:21 05-Animals With Little LegsDR10 -0.66 dB -14.18 dB 3:44 06-Quarter to QuarterDR13 -2.21 dB -21.75 dB 4:32 07-KimeiDR11 -0.69 dB -15.88 dB 8:09 08-Infinite TonalitiesDR13 -6.53 dB -25.22 dB 4:52 09-Something Steve Will Come Up WithDR12 -0.76 dB -19.83 dB 3:12 10-Night and Day and NightDR11 -0.69 dB -16.76 dB 4:26 11-Quarter to Seven--------------------------------------------------------------------------------
Number of tracks: 11Official DR value: DR11
Samplerate: 44100 HzChannels: 2Bits per sample: 16Bitrate: 695 kbpsCodec: FLAC================================================================================

SPECTROGRAM


If you like the topic, please click share to help develop our site.

To download the file disable ad blocking, and reload the page.

disable adblock How to disable ad blocking?

Download by magnet link 259 MB Download Torrent

Login using:

Similar topics



   
Current time is: 25-Jun 10:26 :: All times are UTC + 3