Dark Sadness / Art & Solitude
Жанр: Melodic Death/Doom Metal
Носитель: CDR
Страна-производитель диска (релиза): Russia
Год издания: 1996 (2017)
Издатель (лейбл): Satanarsa Records
Номер по каталогу: STN-133
Страна исполнителя (группы): Mexico
Аудиокодек: FLAC (*.flac)
Тип рипа: image+.cue
Продолжительность: 00:34:25
Источник: собственный рип
Наличие сканов в содержимом раздачи: да
Трек-лист:
01. Intro. (00:35)
02. Out Of Focus. (04:16)
03. Evil Inside. (05:21)

05. Pain And Passion. (05:09)
06. Art & Solitude. (03:23)
07. Dark Sadness (Acoustic). (05:33)
08. Nothing To Hold. (Bonus track) (05:14)- -

Лог создания рипа

Exact Audio Copy V1.3 from 2. September 2016
EAC extraction logfile from 26. April 2019, 14:21
Dark Sadness / Art And Solitude
Used drive : PIONEER DVD-RW DVR-111D Adapter: 1 ID: 0
Read mode : SecureUtilize accurate stream : YesDefeat audio cache : YesMake use of C2 pointers : No
Read offset correction : 48Overread into Lead-In and Lead-Out : NoFill up missing offset samples with silence : YesDelete leading and trailing silent blocks : NoNull samples used in CRC calculations : YesUsed interface : Native Win32 interface for Win NT & 2000
Used output format : User Defined EncoderSelected bitrate : 1024 kBit/sQuality : HighAdd ID3 tag : NoCommand line compressor : D:\Flac\flac.exeAdditional command line options : -V -8 -T "Date=%year%" -T "Genre=%genre%" %source%
TOC of the extracted CD
Track | Start | Length | Start sector | End sector --------------------------------------------------------- 1 | 0:00.00 | 0:35.25 | 0 | 2649 2 | 0:35.25 | 4:16.26 | 2650 | 21875 3 | 4:51.51 | 5:21.18 | 21876 | 45968 4 | 10:12.69 | 4:53.14 | 45969 | 67957 5 | 15:06.08 | 5:09.00 | 67958 | 91132 6 | 20:15.08 | 3:22.42 | 91133 | 106324 7 | 23:37.50 | 5:32.69 | 106325 | 131293 8 | 29:10.44 | 5:14.04 | 131294 | 154847
Range status and errors
Selected range
Filename D:\Rips from Dаrkmind\Dark Sadness - Art And Solitude.wav
Peak level 100.0 % Extraction speed 6.4 X Range quality 100.0 % Test CRC CE4490C3 Copy CRC CE4490C3 Copy OK
No errors occurred
AccurateRip summary
Track 1 not present in databaseTrack 2 not present in databaseTrack 3 not present in databaseTrack 4 not present in databaseTrack 5 not present in databaseTrack 6 not present in databaseTrack 7 not present in databaseTrack 8 not present in database
None of the tracks are present in the AccurateRip database
End of status report
---- CUETools DB Plugin V2.1.6
[CTDB TOCID: sy5RY.mMYiU.PtouJEPDBdFnep0-] foundSubmit result: sy5RY.mMYiU.PtouJEPDBdFnep0- has been confirmedTrack | CTDB Status 1 | (1/1) Accurately ripped 2 | (1/1) Accurately ripped 3 | (1/1) Accurately ripped 4 | (1/1) Accurately ripped 5 | (1/1) Accurately ripped 6 | (1/1) Accurately ripped 7 | (1/1) Accurately ripped 8 | (1/1) Accurately ripped
==== Log checksum DA907C0E45B440D29F26B41C2E79264E93BE851D146ABAD17ABFBEDD6BDB0CE2 ====

Лог проверки качества

-----------------------
DON'T MODIFY THIS FILE
-----------------------
PERFORMER: auCDtect Task Manager, ver. 1.6.0 RC1 build 1.6.0.1Copyright (c) 2008-2010 y-soft. All rights reservedhttp://y-soft.org
ANALYZER: auCDtect: CD records authenticity detector, version 0.8.2Copyright (c) 2004 Oleg Berngardt. All rights reserved.Copyright (c) 2004 Alexander Djourik. All rights reserved.
FILE: Dark Sadness - Art & Solitude.flac Size: 177091373 Hash: 23BE5F3EB756FBB9A0BB88D591E995B5 Accuracy: -m0 Conclusion: MPEG 95% Signature: 9D438C4E6C27859BA9D9D2F670A28C2A1DE3ABA3
-

Доп. информация

Pro-printed CD-R released in a standard jewel case with 4-page booklet.

Состав

Demo 1996:
Alejandro G. Román - vocals & keyboards.
José Sánchez - guitars.
William V.J. - bass & vocals.
M. de Florencia - drums & vocals.
Bonus track 2012:
William V.J. - vocals.
José Sánchez - guitars, bass.
Juan Carlos R - drums.
Yuliana Neri - chorus.

If you like the topic, please click share to help develop our site.

To download the file disable ad blocking, and reload the page.

disable adblock How to disable ad blocking?

Download by magnet link 234 MB Download Torrent

Login using:

Similar topics



   
Current time is: 25-Jun 11:32 :: All times are UTC + 3