Jack Frost / Gloom Rock Asylum
Жанр: Doom Metal, Gothic Metal
Носитель: CD
Страна-производитель диска (релиза): Russia
Год издания: 2000
Издатель (лейбл): Irond
Номер по каталогу: IROND CD 01-44
Страна исполнителя (группы): Austria
Аудиокодек: FLAC (*.flac)
Тип рипа: image+.cue
Продолжительность: 0:39:00
Источник: собственный рип
Наличие сканов в содержимом раздачи: да
Треклист:
1. Sober (1:30)
2. You Are The Cancer (4:02)
3. How Will I Sleep (6:02)
4. In Gloom (5:16)
5. Psychodrome (5:54)
6. Sink (5:02)
7. California Dreamin' (6:07)
8. Beyond The Rubicon (5:04)

EAC Log

Exact Audio Copy V1.3 from 2. September 2016
EAC extraction logfile from 2. May 2019, 20:08
Jack Frost / Gloom Rock Asylum
Used drive : MATSHITADVD-RAM UJ-841S Adapter: 1 ID: 0
Read mode : SecureUtilize accurate stream : YesDefeat audio cache : YesMake use of C2 pointers : No
Read offset correction : 102Overread into Lead-In and Lead-Out : NoFill up missing offset samples with silence : YesDelete leading and trailing silent blocks : NoNull samples used in CRC calculations : YesUsed interface : Native Win32 interface for Win NT & 2000
Used output format : User Defined EncoderSelected bitrate : 128 kBit/sQuality : HighAdd ID3 tag : NoCommand line compressor : C:\Program Files\Exact Audio Copy\Flac\flac.exeAdditional command line options : -V -8 -T "Date=%year%" -T "Genre=%genre%" %source%
TOC of the extracted CD
Track | Start | Length | Start sector | End sector --------------------------------------------------------- 1 | 0:00.00 | 1:30.23 | 0 | 6772 2 | 1:30.23 | 4:02.20 | 6773 | 24942 3 | 5:32.43 | 6:02.15 | 24943 | 52107 4 | 11:34.58 | 5:16.00 | 52108 | 75807 5 | 16:50.58 | 5:54.52 | 75808 | 102409 6 | 22:45.35 | 5:02.35 | 102410 | 125094 7 | 27:47.70 | 6:07.58 | 125095 | 152677 8 | 33:55.53 | 5:05.05 | 152678 | 175557
Range status and errors
Selected range
Filename C:\Zloslaw\Jack Frost - 2000 - Gloom Rock Asylum (IROND CD 01-44)\Jack Frost - Gloom Rock Asylum.wav
Peak level 100.0 % Extraction speed 3.6 X Range quality 99.9 % Test CRC 2DF77A05 Copy CRC 2DF77A05 Copy OK
No errors occurred
AccurateRip summary
Track 1 accurately ripped (confidence 3) [8363D2D3] (AR v2)Track 2 accurately ripped (confidence 3) [AD99F0EC] (AR v2)Track 3 accurately ripped (confidence 3) [FE641010] (AR v2)Track 4 accurately ripped (confidence 3) [15A79A86] (AR v2)Track 5 accurately ripped (confidence 3) [3E941C41] (AR v2)Track 6 accurately ripped (confidence 3) [DC1817AC] (AR v2)Track 7 accurately ripped (confidence 3) [85565BDF] (AR v2)Track 8 accurately ripped (confidence 3) [38159F12] (AR v2)
All tracks accurately ripped
End of status report
---- CUETools DB Plugin V2.1.6
[CTDB TOCID: UeFKrVBspx6pKCNGY6hclffXetI-] foundSubmit result: UeFKrVBspx6pKCNGY6hclffXetI- has been confirmedTrack | CTDB Status 1 | (3/3) Accurately ripped 2 | (3/3) Accurately ripped 3 | (3/3) Accurately ripped 4 | (3/3) Accurately ripped 5 | (3/3) Accurately ripped 6 | (3/3) Accurately ripped 7 | (3/3) Accurately ripped 8 | (3/3) Accurately ripped
==== Log checksum 13343D534239B1A85C1B8085F05175B56A449AA31F2F80D5192A56204445288F ====

If you like the topic, please click share to help develop our site.

To download the file disable ad blocking, and reload the page.

disable adblock How to disable ad blocking?

Download by magnet link 259 MB Download Torrent

Login using:

Similar topics

(Gothic/Doom Metal) Te Devm - Te Devm (Demo) - 1999, MP3, 320 kbps
 58 MB   0 | 0   13-May-19 06:05   0
(Doom/Gothic Metal) Kemet - Pieces (EP) - 1998, MP3, 320 kbps
 68 MB   0 | 0   13-May-19 06:05   0
(Gothic/Doom Metal) Desiderium - Demo 1999 (Demo) - 1999, MP3, 320 kbps
 55 MB   0 | 0   13-May-19 06:05   0


   
Current time is: 25-Jun 10:43 :: All times are UTC + 3