Various Artists - Top Hits 1996, 4 CDs-
Жанр: Eurodance / Euro House / House / Trance / Europop / Pop / Pop-Rap / Synth-pop
Год выпуска сборников: 1996
Производитель дисков: Бельгия
Издатель (лейбл): Arcade
Продолжительность: 05:06:41
Аудио кодек: FLAC
Тип рипа: image+.cue
Битрейт аудио: lossless
Источник (релизер): Heavenly79.
-Сборники:

Тоp Hits 1996, vol. 1

Издатель (лейбл): Arcade‎
Номер по каталогу: 01.10242
Треклист:
1. Double Vision - Knockin' (Radio Version) 3:26
2. 2 Unlimited - Do What's Good For Me (Edit) 3:50
3. Good Shape - Sing Like The Children 3:26
4. Double Vision - Аll Right (Radio Version) 3:47
5. Mighty Dub Katz - Magic Carpet Ride (No Comprende Edit) 3:48
6. DJ Paul Elstak - Don't Leave Me Alone (K&A's Radio Blast) 3:34
7. Whigfield - Last Christmas 3:48
8. T-Spoon - A Part Of My Life (Radio Mix) 3:37
9. 740 Boyz - Bump Bump (Radio Version) 3:43
10. Right Said Fred - Living On A Dream (Alex Party Dream Mix) 4:42
11. Sister Queen - Let Me Be A Drag Queen (Original Radio Edit) 3:21
12. C'est Tout - Tandenborstel Jive 2:54
13. Def Dames Dope - Never Givin' In 3:56
14. Ballistic Brothers - Peckings 2:56
15. Rednex - Rolling Home (Tretow's Treatment - Radio) 4:42
16. Skibby - I Started A Joke 3:42
17. Jeremy Jackson - French Kiss 4:07
18. Kim Wilde This I Swear 3:52
19. Spectre - James Bond Dance Theme (Spectre Mix) 4:14
20. Daddy K. - Stand Up 3:50

Отчёт EAC

Exact Audio Copy V1.3 from 2. September 2016
Отчёт EAC об извлечении, выполненном 4. мая 2019, 10:16
Various Artists / Top Hits 1996 Vol. 1
Дисковод: HL-DT-STDVDRAM GT32N Adapter: 1 ID: 0
Режим чтения : ДостоверностьИспользование точного потока : ДаОтключение кэша аудио : ДаИспользование указателей C2 : Нет
Коррекция смещения при чтении : 103Способность читать области Lead-in и Lead-out : НетЗаполнение пропущенных сэмплов тишиной : ДаУдаление блоков с тишиной в начале и конце : НетПри вычислениях CRC использовались нулевые сэмплы : ДаИнтерфейс : Встроенный Win32-интерфейс для Win NT/2000
Выходной формат : Пользовательский кодировщикВыбранный битрейт : 896 kBit/sКачество : ВысокийДобавление ID3-тега : НетУтилита сжатия : C:\Program Files (x86)\Exact Audio Copy\flac-1.3.1-win\win64\flac.exeДополнительные параметры : -8 -V -T "ARTIST=%artist%" -T "TITLE=%title%" -T "ALBUM=%albumtitle%" -T "DATE=%year%" -T "TRACKNUMBER=%tracknr%/%numtracks%" -T "GENRE=%genre%" -T "COMMENT=%comment%" %source% -o %dest%
TOC извлечённого CD
Трек | Старт | Длительность | Начальный сектор | Конечный сектор --------------------------------------------------------------------- 1 | 0:00.00 | 3:26.22 | 0 | 15471 2 | 3:26.22 | 3:50.23 | 15472 | 32744 3 | 7:16.45 | 3:26.25 | 32745 | 48219 4 | 10:42.70 | 3:47.67 | 48220 | 65311 5 | 14:30.62 | 3:48.08 | 65312 | 82419 6 | 18:18.70 | 3:34.65 | 82420 | 98534 7 | 21:53.60 | 3:48.10 | 98535 | 115644 8 | 25:41.70 | 3:37.02 | 115645 | 131921 9 | 29:18.72 | 3:43.18 | 131922 | 148664 10 | 33:02.15 | 4:42.42 | 148665 | 169856 11 | 37:44.57 | 3:21.68 | 169857 | 184999 12 | 41:06.50 | 2:54.00 | 185000 | 198049 13 | 44:00.50 | 3:56.15 | 198050 | 215764 14 | 47:56.65 | 2:56.62 | 215765 | 229026 15 | 50:53.52 | 4:42.38 | 229027 | 250214 16 | 55:36.15 | 3:42.07 | 250215 | 266871 17 | 59:18.22 | 4:07.43 | 266872 | 285439 18 | 63:25.65 | 3:52.55 | 285440 | 302894 19 | 67:18.45 | 4:14.05 | 302895 | 321949 20 | 71:32.50 | 3:50.25 | 321950 | 339224
Характеристики диапазона извлечения и сообщения об ошибках
Выбранный диапазон
Имя файла E:\Music\********\My torrents\Various Artists - Top Hits 1996, 4 CDs (1996) FLAC\Top Hits 1996, vol.1 (1996) FLAC\Various Artists - Top Hits 1996 Vol. 1.wav
Пиковый уровень 93.0 % Скорость извлечения 1.5 X Качество диапазона 100.0 % CRC теста 7AABC5FE CRC копии 7AABC5FE Копирование... OK
Ошибок не произошло
AccurateRip: сводка
Трек 1 : извлечено точно (доверие 4) [CC726DE3] (AR v2)Трек 2 : извлечено точно (доверие 4) [0249DB83] (AR v2)Трек 3 : извлечено точно (доверие 4) [8342E963] (AR v2)Трек 4 : извлечено точно (доверие 4) [8ABC7913] (AR v2)Трек 5 : извлечено точно (доверие 4) [6EA74A89] (AR v2)Трек 6 : извлечено точно (доверие 4) [76232A82] (AR v2)Трек 7 : извлечено точно (доверие 4) [B5DDD801] (AR v2)Трек 8 : извлечено точно (доверие 4) [12D61658] (AR v2)Трек 9 : извлечено точно (доверие 4) [44092181] (AR v2)Трек 10 : извлечено точно (доверие 4) [E706653C] (AR v2)Трек 11 : извлечено точно (доверие 4) [1DC5E770] (AR v2)Трек 12 : извлечено точно (доверие 4) [A5ED34D0] (AR v2)Трек 13 : извлечено точно (доверие 4) [671EB81D] (AR v2)Трек 14 : извлечено точно (доверие 4) [7F0C0A8B] (AR v2)Трек 15 : извлечено точно (доверие 4) [CB113B4A] (AR v2)Трек 16 : извлечено точно (доверие 4) [0F4F79A2] (AR v2)Трек 17 : извлечено точно (доверие 4) [D8C3F95D] (AR v2)Трек 18 : извлечено точно (доверие 4) [D3C22CAE] (AR v2)Трек 19 : извлечено точно (доверие 4) [FE8B407B] (AR v2)Трек 20 : извлечено точно (доверие 4) [8C8BE489] (AR v2)
Все треки извлечены точно
Конец отчёта
---- CUETools DB Plugin V2.1.6
[CTDB TOCID: 8i0Bvzx74abA_Nj4rrLxOchX9YM-] foundSubmit result: 8i0Bvzx74abA_Nj4rrLxOchX9YM- has been confirmedTrack | CTDB Status 1 | (12/12) Accurately ripped 2 | (12/12) Accurately ripped 3 | (12/12) Accurately ripped 4 | (12/12) Accurately ripped 5 | (12/12) Accurately ripped 6 | (12/12) Accurately ripped 7 | (12/12) Accurately ripped 8 | (12/12) Accurately ripped 9 | (12/12) Accurately ripped 10 | (12/12) Accurately ripped 11 | (12/12) Accurately ripped 12 | (12/12) Accurately ripped 13 | (12/12) Accurately ripped 14 | (12/12) Accurately ripped 15 | (12/12) Accurately ripped 16 | (12/12) Accurately ripped 17 | (12/12) Accurately ripped 18 | (12/12) Accurately ripped 19 | (12/12) Accurately ripped 20 | (12/12) Accurately ripped
==== Контрольная сумма отчёта 246348C78AD9E6D88F158031D50C7C569C7FA2016C09656C50021B31189AF28F ====

Top Hits 1996, vol. 2

Издатель (лейбл): Arcade ‎
Номерa по каталогу: 0110276
Треклист:
1. 2 Fabiola - Lift U Up (Radio Mix) 3:26
2. Boris - Soirée Disco (Fais Le Beau Radio Mix) 3:45
3. Coolio - 1, 2, 3, 4 (Jumpin' New) 3:20
4. Zhi-Vago - Celebrate The Love (Radio Version) 4:07
5. Get Ready! - Deep So Deep 3:38
6. Robert Miles - Children (Radio Edit) 3:51
7. Third World - Papa Was A Rolling Stone (The Hyper Pearl Radio Edit) 3:46
8. Good Shape - Never Gonna Give Up (Happy Dance Mix) 3:52
9. T-Spoon - Rockstar (Dark Mix) 4:56
10 –Paradisio Bailando (Radio Version) 3:48
11. 2 Brothers On The 4th Floor - Fairytales (Radio Version) 3:30
12. Whigfield - Sexy Eyes (Album Version) 3:58
13. Tony Di Bart - Turn Your Love Around (2 Brothers On The 4th Floor Radio Remix) 3:26
14. Tokyo Ghetto Pussy - To Another Galaxy (Radio & Video Edit) 3:58
15. Right Said Fred - Everybody Loves Me 3:14
16. En Zo... - Wild And Young 2:53
17. DJ Paul Elstak - The Promised Land (Promised Radio Mix) 3:41
18. Gat Decor - Passion (Do You Want It Right Now Edit) 4:08
19. Neuronic - Heaven (Radio Mix) 3:43
20. Daddy K. - Et C'Est Comme Ca 4:27

Отчёт EAC

Exact Audio Copy V1.3 from 2. September 2016
Отчёт EAC об извлечении, выполненном 4. мая 2019, 12:41
Various Artists / Top Hits 1996 Vol. 2
Дисковод: HL-DT-STDVDRAM GT32N Adapter: 1 ID: 0
Режим чтения : ДостоверностьИспользование точного потока : ДаОтключение кэша аудио : ДаИспользование указателей C2 : Нет
Коррекция смещения при чтении : 103Способность читать области Lead-in и Lead-out : НетЗаполнение пропущенных сэмплов тишиной : ДаУдаление блоков с тишиной в начале и конце : НетПри вычислениях CRC использовались нулевые сэмплы : ДаИнтерфейс : Встроенный Win32-интерфейс для Win NT/2000
Выходной формат : Пользовательский кодировщикВыбранный битрейт : 896 kBit/sКачество : ВысокийДобавление ID3-тега : НетУтилита сжатия : C:\Program Files (x86)\Exact Audio Copy\flac-1.3.1-win\win64\flac.exeДополнительные параметры : -8 -V -T "ARTIST=%artist%" -T "TITLE=%title%" -T "ALBUM=%albumtitle%" -T "DATE=%year%" -T "TRACKNUMBER=%tracknr%/%numtracks%" -T "GENRE=%genre%" -T "COMMENT=%comment%" %source% -o %dest%
TOC извлечённого CD
Трек | Старт | Длительность | Начальный сектор | Конечный сектор --------------------------------------------------------------------- 1 | 0:00.33 | 3:26.57 | 33 | 15539 2 | 3:27.15 | 3:45.40 | 15540 | 32454 3 | 7:12.55 | 3:20.68 | 32455 | 47522 4 | 10:33.48 | 4:07.65 | 47523 | 66112 5 | 14:41.38 | 3:38.20 | 66113 | 82482 6 | 18:19.58 | 3:51.50 | 82483 | 99857 7 | 22:11.33 | 3:46.57 | 99858 | 116864 8 | 25:58.15 | 3:52.25 | 116865 | 134289 9 | 29:50.40 | 4:56.23 | 134290 | 156512 10 | 34:46.63 | 3:48.67 | 156513 | 173679 11 | 38:35.55 | 3:30.00 | 173680 | 189429 12 | 42:05.55 | 3:58.70 | 189430 | 207349 13 | 46:04.50 | 3:26.10 | 207350 | 222809 14 | 49:30.60 | 3:58.25 | 222810 | 240684 15 | 53:29.10 | 3:14.73 | 240685 | 255307 16 | 56:44.08 | 2:53.22 | 255308 | 268304 17 | 59:37.30 | 3:41.35 | 268305 | 284914 18 | 63:18.65 | 4:08.55 | 284915 | 303569 19 | 67:27.45 | 3:43.10 | 303570 | 320304 20 | 71:10.55 | 4:27.53 | 320305 | 340382
Характеристики диапазона извлечения и сообщения об ошибках
Выбранный диапазон
Имя файла E:\Music\********\My torrents\Various Artists - Top Hits 1996, 4 CDs (1996) FLAC\Top Hits 1996, vol.2 (1996) FLAC\Various Artists - Top Hits 1996 Vol. 2.wav
Пиковый уровень 98.5 % Скорость извлечения 1.5 X Качество диапазона 99.9 % CRC теста E753B26A CRC копии E753B26A Копирование... OK
Ошибок не произошло
AccurateRip: сводка
Трек 1 : извлечено точно (доверие 3) [C0D3A234] (AR v2)Трек 2 : извлечено точно (доверие 3) [FE095BCC] (AR v2)Трек 3 : извлечено точно (доверие 3) [C041FB3E] (AR v2)Трек 4 : извлечено точно (доверие 3) [B3A123E4] (AR v2)Трек 5 : извлечено точно (доверие 3) [D0DA49E1] (AR v2)Трек 6 : извлечено точно (доверие 3) [58AC1717] (AR v2)Трек 7 : извлечено точно (доверие 3) [A4CBED38] (AR v2)Трек 8 : извлечено точно (доверие 3) [44C0620B] (AR v2)Трек 9 : извлечено точно (доверие 3) [50C53B6E] (AR v2)Трек 10 : извлечено точно (доверие 3) [8AEC617E] (AR v2)Трек 11 : извлечено точно (доверие 3) [EAD38F19] (AR v2)Трек 12 : извлечено точно (доверие 3) [0334579F] (AR v2)Трек 13 : извлечено точно (доверие 3) [A22DC572] (AR v2)Трек 14 : извлечено точно (доверие 3) [63BBE332] (AR v2)Трек 15 : извлечено точно (доверие 3) [FE415BDD] (AR v2)Трек 16 : извлечено точно (доверие 3) [950AF97A] (AR v2)Трек 17 : извлечено точно (доверие 2) [77E79080] (AR v2)Трек 18 : извлечено точно (доверие 2) [98505F93] (AR v2)Трек 19 : извлечено точно (доверие 2) [10339018] (AR v2)Трек 20 : извлечено точно (доверие 2) [F4D25F73] (AR v2)
Все треки извлечены точно
Конец отчёта
---- CUETools DB Plugin V2.1.6
[CTDB TOCID: zhQIcTOcvqhllQFdwTkcSYn9Tvo-] foundSubmit result: zhQIcTOcvqhllQFdwTkcSYn9Tvo- has been confirmedTrack | CTDB Status 1 | (4/5) Accurately ripped 2 | (5/5) Accurately ripped 3 | (5/5) Accurately ripped 4 | (5/5) Accurately ripped 5 | (5/5) Accurately ripped 6 | (5/5) Accurately ripped 7 | (5/5) Accurately ripped 8 | (5/5) Accurately ripped 9 | (5/5) Accurately ripped 10 | (5/5) Accurately ripped 11 | (5/5) Accurately ripped 12 | (5/5) Accurately ripped 13 | (5/5) Accurately ripped 14 | (5/5) Accurately ripped 15 | (5/5) Accurately ripped 16 | (5/5) Accurately ripped 17 | (5/5) Accurately ripped 18 | (5/5) Accurately ripped 19 | (5/5) Accurately ripped 20 | (4/5) Accurately ripped
==== Контрольная сумма отчёта 0AD3B7F67A8EF1C938022E3F9FE07F0B563FF12E21F95C18A93AD925E462F821 ====

Top Hits 1996, vol. 3

Издатель (лейбл): Arcade
Номерa по каталогу: 0110316
Треклист:
1. Paradisio - Bailando 3:50
2. 2 Fabiola - I'm On Fire 3:42
3. Home-Less - Killing Me Softly 4:51
4. Backstreet Boys - Get Down (You're The One For Me) 3:53
5. Deep Zone - It's Gonna Be All Right (DJ Guan's Radio Mix) 3:50
6. Los Del Mar Feat. P. Castano - Macarena 3:51
7. Sampana - Tic-Tic-Tac 3:17
8. Zolex Presents Carat Trax 3 - Beautiful Inside 4:13
9. Soultans - Can't Take My Hands Off You 3:57
10. 2 Brothers On The 4th Floor - Mirror Of Love (2 Fabiola Radio Mix) 3:49
11. Eimear Quinn - The Voice 3:04
12. T-Spoon - Someone Loves You Honey (Extended Mix) 4:36
13. Justine Earp - Ooh La La La 4:16
14. Bob Marley - What Goes Around Comes Around (Alex Party Remix) 3:50
15. Tanya Louise - Deep In You (Stone Club Mix Edit) 4:12
16. Rap-Sody Feat. Kevin Ettienne - You Don't Understand Me 3:25
17. C-12 - Satisfaction 3:46
18. Barbarra Dex & Paul Michiels - Leaving This Town 4:55
19. The Un-X-Plained - Theme From Mission Impossible 3:17
20. Sha-Na - And The Band Goes On 3:49

Отчёт EAC

Exact Audio Copy V1.3 from 2. September 2016
Отчёт EAC об извлечении, выполненном 4. мая 2019, 14:23
Various Artists / Top Hits 1996 Vol. 3
Дисковод: HL-DT-STDVDRAM GT32N Adapter: 1 ID: 0
Режим чтения : ДостоверностьИспользование точного потока : ДаОтключение кэша аудио : ДаИспользование указателей C2 : Нет
Коррекция смещения при чтении : 103Способность читать области Lead-in и Lead-out : НетЗаполнение пропущенных сэмплов тишиной : ДаУдаление блоков с тишиной в начале и конце : НетПри вычислениях CRC использовались нулевые сэмплы : ДаИнтерфейс : Встроенный Win32-интерфейс для Win NT/2000
Выходной формат : Пользовательский кодировщикВыбранный битрейт : 896 kBit/sКачество : ВысокийДобавление ID3-тега : НетУтилита сжатия : C:\Program Files (x86)\Exact Audio Copy\flac-1.3.1-win\win64\flac.exeДополнительные параметры : -8 -V -T "ARTIST=%artist%" -T "TITLE=%title%" -T "ALBUM=%albumtitle%" -T "DATE=%year%" -T "TRACKNUMBER=%tracknr%/%numtracks%" -T "GENRE=%genre%" -T "COMMENT=%comment%" %source% -o %dest%
TOC извлечённого CD
Трек | Старт | Длительность | Начальный сектор | Конечный сектор --------------------------------------------------------------------- 1 | 0:00.00 | 3:50.22 | 0 | 17271 2 | 3:50.22 | 3:42.70 | 17272 | 33991 3 | 7:33.17 | 4:51.35 | 33992 | 55851 4 | 12:24.52 | 3:53.15 | 55852 | 73341 5 | 16:17.67 | 3:50.55 | 73342 | 90646 6 | 20:08.47 | 3:51.05 | 90647 | 107976 7 | 23:59.52 | 3:17.15 | 107977 | 122766 8 | 27:16.67 | 4:13.03 | 122767 | 141744 9 | 31:29.70 | 3:57.35 | 141745 | 159554 10 | 35:27.30 | 3:49.47 | 159555 | 176776 11 | 39:17.02 | 3:04.18 | 176777 | 190594 12 | 42:21.20 | 4:36.25 | 190595 | 211319 13 | 46:57.45 | 4:16.10 | 211320 | 230529 14 | 51:13.55 | 3:50.32 | 230530 | 247811 15 | 55:04.12 | 4:12.55 | 247812 | 266766 16 | 59:16.67 | 3:25.53 | 266767 | 282194 17 | 62:42.45 | 3:46.40 | 282195 | 299184 18 | 66:29.10 | 4:55.65 | 299185 | 321374 19 | 71:25.00 | 3:17.37 | 321375 | 336186 20 | 74:42.37 | 3:49.23 | 336187 | 353384
Характеристики диапазона извлечения и сообщения об ошибках
Выбранный диапазон
Имя файла E:\Music\********\My torrents\Various Artists - Top Hits 1996, 4 CDs (1996) FLAC\Top Hits 1996, vol.3 (1996) FLAC\Various Artists - Top Hits 1996 Vol. 3.wav
Пиковый уровень 99.6 % Скорость извлечения 1.5 X Качество диапазона 100.0 % CRC теста A23A93D1 CRC копии A23A93D1 Копирование... OK
Ошибок не произошло
AccurateRip: сводка
Трек 1 : извлечено точно (доверие 3) [752B7C69] (AR v2)Трек 2 : извлечено точно (доверие 3) [1F820DC6] (AR v2)Трек 3 : извлечено точно (доверие 3) [BFEDEDB5] (AR v2)Трек 4 : извлечено точно (доверие 3) [222A37EA] (AR v2)Трек 5 : извлечено точно (доверие 3) [64E4391A] (AR v2)Трек 6 : извлечено точно (доверие 3) [5F42EEA8] (AR v2)Трек 7 : извлечено точно (доверие 3) [6F82C709] (AR v2)Трек 8 : извлечено точно (доверие 3) [C04664BF] (AR v2)Трек 9 : извлечено точно (доверие 3) [34FCF856] (AR v2)Трек 10 : извлечено точно (доверие 3) [71D2C8A5] (AR v2)Трек 11 : извлечено точно (доверие 3) [78C68C68] (AR v2)Трек 12 : извлечено точно (доверие 3) [81A04B31] (AR v2)Трек 13 : извлечено точно (доверие 3) [A43DCA7A] (AR v2)Трек 14 : извлечено точно (доверие 3) [FA378939] (AR v2)Трек 15 : извлечено точно (доверие 3) [A1C2223D] (AR v2)Трек 16 : извлечено точно (доверие 3) [2917ECD2] (AR v2)Трек 17 : извлечено точно (доверие 3) [10BBAB59] (AR v2)Трек 18 : извлечено точно (доверие 3) [AE47DFCF] (AR v2)Трек 19 : извлечено точно (доверие 3) [8B5D33D2] (AR v2)Трек 20 : извлечено точно (доверие 3) [084F1146] (AR v2)
Все треки извлечены точно
Конец отчёта
---- CUETools DB Plugin V2.1.6
[CTDB TOCID: tldymMeNPf4rnbBkVN_GKJI6agM-] foundSubmit result: tldymMeNPf4rnbBkVN_GKJI6agM- has been confirmedTrack | CTDB Status 1 | (8/8) Accurately ripped 2 | (8/8) Accurately ripped 3 | (8/8) Accurately ripped 4 | (7/8) Accurately ripped 5 | (7/8) Accurately ripped 6 | (8/8) Accurately ripped 7 | (8/8) Accurately ripped 8 | (8/8) Accurately ripped 9 | (8/8) Accurately ripped 10 | (8/8) Accurately ripped 11 | (8/8) Accurately ripped 12 | (8/8) Accurately ripped 13 | (8/8) Accurately ripped 14 | (8/8) Accurately ripped 15 | (8/8) Accurately ripped 16 | (8/8) Accurately ripped 17 | (8/8) Accurately ripped 18 | (8/8) Accurately ripped 19 | (8/8) Accurately ripped 20 | (8/8) Accurately ripped
==== Контрольная сумма отчёта E4FE3E22A450127E33CD7D19F3FED32F7BAB5C36F03D5440A2030383F1A0B89E ====

Top Hits 1996, vol. 4

Издатель (лейбл): ‎Arcade
Номер по каталогу: 0110376
Треклист:
1. The Course - Ready Or Not (Radio Mix) 3:24
2. Paradisio - Lalala Bandolero 3:56
3. Faithless - Insomnia ('96 Monster Radio Edit) 3:34
4. DJ M.D. - Rio (Radio Version) 3:51
5. X-Session - Bang Bang 3:09
6. Culture Beat - Take Me Away (Radio Edit) 3:55
7. Touch Of Joy - Don't Give It Up 3:54
8. Billy Paul - Your Song 3:39
9. Boris Dlugosch - Keep Pushin' (Radio Version) 3:33
10. Third World - Now That We Found Love (A Rotation Mix) 3:47
11. Amber - This Is Your Night (Radio Mix) 3:40
12. T-Spoon - Smiling (Before The Storm Mix) 5:21
13. Zhi-Vago - Dreamer (Radio Version) 4:02
14. Furia - I Want You Boy (Boy Pan Mix) 4:04
15. Skee-Lo - Holdin' On (Radio Version) 4:02
16. Flip Da Scrip - You To Me (Long Video Mix) 4:01
17. Junior Vasquez - If Madonna Calls (Jr's House Mix Radio Edit) 4:11
18. Technotronic - Pump Up The Jam '96 (Tin Tin Out Radio Mix) 3:49
19. Fiesta Mora - Alabina 3:40
20. Frank Galan - Maria Reina Del Mar 3:28

Отчёт EAC

Exact Audio Copy V1.3 from 2. September 2016
Отчёт EAC об извлечении, выполненном 4. мая 2019, 16:36
Various Artists / Top Hits 1996 Vol. 4
Дисковод: HL-DT-STDVDRAM GT32N Adapter: 1 ID: 0
Режим чтения : ДостоверностьИспользование точного потока : ДаОтключение кэша аудио : ДаИспользование указателей C2 : Нет
Коррекция смещения при чтении : 103Способность читать области Lead-in и Lead-out : НетЗаполнение пропущенных сэмплов тишиной : ДаУдаление блоков с тишиной в начале и конце : НетПри вычислениях CRC использовались нулевые сэмплы : ДаИнтерфейс : Встроенный Win32-интерфейс для Win NT/2000
Выходной формат : Пользовательский кодировщикВыбранный битрейт : 896 kBit/sКачество : ВысокийДобавление ID3-тега : НетУтилита сжатия : C:\Program Files (x86)\Exact Audio Copy\flac-1.3.1-win\win64\flac.exeДополнительные параметры : -8 -V -T "ARTIST=%artist%" -T "TITLE=%title%" -T "ALBUM=%albumtitle%" -T "DATE=%year%" -T "TRACKNUMBER=%tracknr%/%numtracks%" -T "GENRE=%genre%" -T "COMMENT=%comment%" %source% -o %dest%
TOC извлечённого CD
Трек | Старт | Длительность | Начальный сектор | Конечный сектор --------------------------------------------------------------------- 1 | 0:00.00 | 3:24.45 | 0 | 15344 2 | 3:24.45 | 3:56.12 | 15345 | 33056 3 | 7:20.57 | 3:34.45 | 33057 | 49151 4 | 10:55.27 | 3:51.30 | 49152 | 66506 5 | 14:46.57 | 3:09.00 | 66507 | 80681 6 | 17:55.57 | 3:55.05 | 80682 | 98311 7 | 21:50.62 | 3:54.10 | 98312 | 115871 8 | 25:44.72 | 3:39.60 | 115872 | 132356 9 | 29:24.57 | 3:33.20 | 132357 | 148351 10 | 32:58.02 | 3:47.63 | 148352 | 165439 11 | 36:45.65 | 3:40.27 | 165440 | 181966 12 | 40:26.17 | 5:21.00 | 181967 | 206041 13 | 45:47.17 | 4:02.15 | 206042 | 224206 14 | 49:49.32 | 4:04.50 | 224207 | 242556 15 | 53:54.07 | 4:02.35 | 242557 | 260741 16 | 57:56.42 | 4:01.73 | 260742 | 278889 17 | 61:58.40 | 4:11.30 | 278890 | 297744 18 | 66:09.70 | 3:49.40 | 297745 | 314959 19 | 69:59.35 | 3:40.17 | 314960 | 331476 20 | 73:39.52 | 3:28.48 | 331477 | 347124
Характеристики диапазона извлечения и сообщения об ошибках
Выбранный диапазон
Имя файла E:\Music\********\My torrents\Various Artists - Top Hits 1996, 4 CDs (1996) FLAC\Top Hits 1996, vol.4 (1996) FLAC\Various Artists - Top Hits 1996 Vol. 4.wav
Пиковый уровень 99.9 % Скорость извлечения 1.6 X Качество диапазона 100.0 % CRC теста F4EDC4FA CRC копии F4EDC4FA Копирование... OK
Ошибок не произошло
AccurateRip: сводка
Трек 1 : извлечено точно (доверие 2) [019472A0] (AR v2)Трек 2 : извлечено точно (доверие 2) [21EAAD45] (AR v2)Трек 3 : извлечено точно (доверие 2) [1DD3E3ED] (AR v2)Трек 4 : извлечено точно (доверие 2) [3B112537] (AR v2)Трек 5 : извлечено точно (доверие 2) [6704F35E] (AR v2)Трек 6 : извлечено точно (доверие 2) [CDC21CCC] (AR v2)Трек 7 : извлечено точно (доверие 2) [79A8E559] (AR v2)Трек 8 : извлечено точно (доверие 2) [1FC44B2C] (AR v2)Трек 9 : извлечено точно (доверие 2) [847CAEBB] (AR v2)Трек 10 : извлечено точно (доверие 2) [B69660F5] (AR v2)Трек 11 : извлечено точно (доверие 2) [51773B99] (AR v2)Трек 12 : извлечено точно (доверие 2) [EBC8887E] (AR v2)Трек 13 : извлечено точно (доверие 2) [DA3BECC9] (AR v2)Трек 14 : извлечено точно (доверие 2) [53BE80D9] (AR v2)Трек 15 : извлечено точно (доверие 2) [74D6E3D0] (AR v2)Трек 16 : извлечено точно (доверие 2) [DB5CC9C1] (AR v2)Трек 17 : извлечено точно (доверие 2) [B4210737] (AR v2)Трек 18 : извлечено точно (доверие 2) [A4087DCF] (AR v2)Трек 19 : извлечено точно (доверие 2) [F12CB5C5] (AR v2)Трек 20 : извлечено точно (доверие 2) [C464AE11] (AR v2)
Все треки извлечены точно
Конец отчёта
---- CUETools DB Plugin V2.1.6
[CTDB TOCID: ZpC8EJAKa2KnQcQoWdOCwqwekYo-] foundSubmit result: ZpC8EJAKa2KnQcQoWdOCwqwekYo- has been confirmedTrack | CTDB Status 1 | (4/4) Accurately ripped 2 | (4/4) Accurately ripped 3 | (4/4) Accurately ripped 4 | (4/4) Accurately ripped 5 | (4/4) Accurately ripped 6 | (4/4) Accurately ripped 7 | (4/4) Accurately ripped 8 | (4/4) Accurately ripped 9 | (4/4) Accurately ripped 10 | (4/4) Accurately ripped 11 | (4/4) Accurately ripped 12 | (4/4) Accurately ripped 13 | (4/4) Accurately ripped 14 | (4/4) Accurately ripped 15 | (4/4) Accurately ripped 16 | (4/4) Accurately ripped 17 | (4/4) Accurately ripped 18 | (4/4) Accurately ripped 19 | (4/4) Accurately ripped 20 | (4/4) Accurately ripped
==== Контрольная сумма отчёта AB327F6FC77357AE0110B453B087B4C22E77F066172B46BFED04766DBBACC283 ====

If you like the topic, please click share to help develop our site.

To download the file disable ad blocking, and reload the page.

disable adblock How to disable ad blocking?

Download by magnet link 1.91 GB Download Torrent

Login using:

Similar topics



   
Current time is: 25-Jun 10:26 :: All times are UTC + 3