Hits Of 1990 #3
Жанр: Various
Носитель: CD
Страна-производитель диска (релиза): Australia
Год издания: 1990
Издатель (лейбл): Festival/EMI/Virgin/PolyGram
Номер по каталогу: D 50020
Аудиокодек: FLAC (*.flac)
Тип рипа: tracks+.cue
Продолжительность: 01:13:32
Источник: RED/Ozgold
Наличие сканов в содержимом раздачи: нет

Треклист:
01 - Heart - All I Wanna Do Is Make Love To You
02 - Belinda Carlisle - Summer Rain
03 - The Angels - Dogs Are Talking
04 - Joan Jett - Dirty Deeds
05 - Janet Jackson - Escapade
06 - Absent Friends - I Don't Want To Be With Nobody But You
07 - 49ers - Touch Me
08 - Dannii - Love And Kisses
09 - Soul II Soul - A Dreams A Dream
10 - The Church - Metropolis
11 - Sam Brown - With A Little Love
12 - Hunters & Collectors - The Way You Live
13 - Candy Flip - Strawberry Fields Forever
14 - Beats International - Dub Be Good To Me
15 - Technotronic - Get Up
16 - Tina Arena - I Need You Body
17 - D-Mob - C'Mon And Get My Love
18 - Kevin Paige - Don't Shut Me Out

Лог создания рипа

Exact Audio Copy V1.3 from 2. September 2016
EAC extraction logfile from 26. February 2019, 18:43
VA / Hits Of 1990 #3
Used drive : PIONEER BD-RW BDR-209D Adapter: 1 ID: 0
Read mode : SecureUtilize accurate stream : YesDefeat audio cache : YesMake use of C2 pointers : No
Read offset correction : 667Overread into Lead-In and Lead-Out : NoFill up missing offset samples with silence : YesDelete leading and trailing silent blocks : NoNull samples used in CRC calculations : YesUsed interface : Native Win32 interface for Win NT & 2000Gap handling : Appended to previous track
Used output format : User Defined EncoderSelected bitrate : 1024 kBit/sQuality : HighAdd ID3 tag : NoCommand line compressor : C:\Program Files (x86)\Exact Audio Copy\Flac\flac.exeAdditional command line options : -8 -V -T "artist=%artist%" -T "title=%title%" -T "album=%albumtitle%" -T "date=%year%" -T "tracknumber=%tracknr%" -T "genre=%genre%" %source%
TOC of the extracted CD
Track | Start | Length | Start sector | End sector --------------------------------------------------------- 1 | 0:00.00 | 4:34.57 | 0 | 20606 2 | 4:34.57 | 4:12.33 | 20607 | 39539 3 | 8:47.15 | 3:22.50 | 39540 | 54739 4 | 12:09.65 | 3:19.50 | 54740 | 69714 5 | 15:29.40 | 4:45.70 | 69715 | 91159 6 | 20:15.35 | 4:47.40 | 91160 | 112724 7 | 25:03.00 | 3:40.37 | 112725 | 129261 8 | 28:43.37 | 3:45.38 | 129262 | 146174 9 | 32:29.00 | 4:13.25 | 146175 | 165174 10 | 36:42.25 | 4:41.25 | 165175 | 186274 11 | 41:23.50 | 3:50.25 | 186275 | 203549 12 | 45:14.00 | 3:49.50 | 203550 | 220774 13 | 49:03.50 | 4:09.37 | 220775 | 239486 14 | 53:13.12 | 5:20.13 | 239487 | 263499 15 | 58:33.25 | 3:11.50 | 263500 | 277874 16 | 61:45.00 | 4:03.40 | 277875 | 296139 17 | 65:48.40 | 3:53.10 | 296140 | 313624 18 | 69:41.50 | 3:53.15 | 313625 | 331114
Track 1
Filename J:\EAC FILES\01 - Heart - All I Wanna Do Is Make Love To You.wav
Pre-gap length 0:00:02.00
Peak level 80.6 % Extraction speed 5.1 X Track quality 100.0 % Test CRC C32F893C Copy CRC C32F893C Cannot be verified as accurate (confidence 3) [78824268], AccurateRip returned [387BC446] (AR v2) Copy OK
Track 2
Filename J:\EAC FILES\02 - Belinda Carlisle - Summer Rain.wav
Pre-gap length 0:00:01.40
Peak level 80.5 % Extraction speed 5.6 X Track quality 100.0 % Test CRC 1D579FC7 Copy CRC 1D579FC7 Cannot be verified as accurate (confidence 5) [4C6AC203], AccurateRip returned [8CE2122A] (AR v2) Copy OK
Track 3
Filename J:\EAC FILES\03 - The Angels - Dogs Are Talking.wav
Peak level 72.4 % Extraction speed 5.7 X Track quality 100.0 % Test CRC B2553867 Copy CRC B2553867 Cannot be verified as accurate (confidence 5) [E835A8DA], AccurateRip returned [3A95654A] (AR v2) Copy OK
Track 4
Filename J:\EAC FILES\04 - Joan Jett - Dirty Deeds.wav
Peak level 81.6 % Extraction speed 6.0 X Track quality 100.0 % Test CRC D8697F4C Copy CRC D8697F4C Cannot be verified as accurate (confidence 5) [57964F2C], AccurateRip returned [03C10CB5] (AR v2) Copy OK
Track 5
Filename J:\EAC FILES\05 - Janet Jackson - Escapade.wav
Peak level 60.0 % Extraction speed 6.7 X Track quality 100.0 % Test CRC ED05C926 Copy CRC ED05C926 Cannot be verified as accurate (confidence 5) [23C5019E], AccurateRip returned [FA594A86] (AR v2) Copy OK
Track 6
Filename J:\EAC FILES\06 - Absent Friends - I Don't Want To Be With Nobody But You.wav
Peak level 62.7 % Extraction speed 7.1 X Track quality 100.0 % Test CRC 1815A248 Copy CRC 1815A248 Cannot be verified as accurate (confidence 5) [08174003], AccurateRip returned [3F84F2F6] (AR v2) Copy OK
Track 7
Filename J:\EAC FILES\07 - 49ers - Touch Me.wav
Peak level 59.9 % Extraction speed 7.2 X Track quality 100.0 % Test CRC B083B2BE Copy CRC B083B2BE Cannot be verified as accurate (confidence 5) [497EAE0B], AccurateRip returned [4F539930] (AR v2) Copy OK
Track 8
Filename J:\EAC FILES\08 - Dannii - Love And Kisses.wav
Peak level 75.7 % Extraction speed 7.5 X Track quality 100.0 % Test CRC 2488803D Copy CRC 2488803D Cannot be verified as accurate (confidence 5) [34899482], AccurateRip returned [4932E8C4] (AR v2) Copy OK
Track 9
Filename J:\EAC FILES\09 - Soul II Soul - A Dreams A Dream.wav
Peak level 71.7 % Extraction speed 7.8 X Track quality 100.0 % Test CRC C7694D4B Copy CRC C7694D4B Cannot be verified as accurate (confidence 5) [71C02A42], AccurateRip returned [18D57661] (AR v2) Copy OK
Track 10
Filename J:\EAC FILES\10 - The Church - Metropolis.wav
Peak level 80.0 % Extraction speed 8.1 X Track quality 100.0 % Test CRC 4FEE31ED Copy CRC 4FEE31ED Cannot be verified as accurate (confidence 5) [FD02D837], AccurateRip returned [2D944050] (AR v2) Copy OK
Track 11
Filename J:\EAC FILES\11 - Sam Brown - With A Little Love.wav
Peak level 86.0 % Extraction speed 8.1 X Track quality 100.0 % Test CRC 8D744A30 Copy CRC 8D744A30 Cannot be verified as accurate (confidence 5) [2D155DA3], AccurateRip returned [BEAF35A4] (AR v2) Copy OK
Track 12
Filename J:\EAC FILES\12 - Hunters And Collectors - The Way You Live.wav
Peak level 86.3 % Extraction speed 8.3 X Track quality 100.0 % Test CRC A6EE88ED Copy CRC A6EE88ED Cannot be verified as accurate (confidence 5) [DF6BD2DE], AccurateRip returned [9062B6F4] (AR v2) Copy OK
Track 13
Filename J:\EAC FILES\13 - Candy Flip - Strawberry Fields Forever.wav
Peak level 66.2 % Extraction speed 8.7 X Track quality 100.0 % Test CRC 67999DB7 Copy CRC 67999DB7 Cannot be verified as accurate (confidence 4) [A9A045DC], AccurateRip returned [DD0729D1] (AR v2) Copy OK
Track 14
Filename J:\EAC FILES\14 - Beats International - Dub Be Good To Me.wav
Pre-gap length 0:00:01.07
Peak level 46.5 % Extraction speed 9.1 X Track quality 100.0 % Test CRC A23E72B4 Copy CRC A23E72B4 Cannot be verified as accurate (confidence 5) [67F0A892], AccurateRip returned [85B82A96] (AR v2) Copy OK
Track 15
Filename J:\EAC FILES\15 - Technotronic - Get Up.wav
Peak level 68.6 % Extraction speed 8.7 X Track quality 100.0 % Test CRC F64F3308 Copy CRC F64F3308 Cannot be verified as accurate (confidence 5) [12D017F5], AccurateRip returned [86F2667E] (AR v2) Copy OK
Track 16
Filename J:\EAC FILES\16 - Tina Arena - I Need You Body.wav
Peak level 69.2 % Extraction speed 9.2 X Track quality 100.0 % Test CRC F1A70840 Copy CRC F1A70840 Cannot be verified as accurate (confidence 5) [436674D5], AccurateRip returned [AACE6739] (AR v2) Copy OK
Track 17
Filename J:\EAC FILES\17 - D-Mob - C'Mon And Get My Love.wav
Peak level 87.8 % Extraction speed 9.3 X Track quality 100.0 % Test CRC 5C30B07E Copy CRC 5C30B07E Cannot be verified as accurate (confidence 5) [B306684A], AccurateRip returned [CDE504D9] (AR v2) Copy OK
Track 18
Filename J:\EAC FILES\18 - Kevin Paige - Don't Shut Me Out.wav
Peak level 83.9 % Extraction speed 8.5 X Track quality 100.0 % Test CRC 0D05E90A Copy CRC 0D05E90A Cannot be verified as accurate (confidence 5) [98F6EC18], AccurateRip returned [F1D12C7C] (AR v2) Copy OK
No tracks could be verified as accurateYou may have a different pressing from the one(s) in the database
No errors occurred
End of status report
---- CUETools DB Plugin V2.1.6
[CTDB TOCID: zAik2COkvJrp65mdgDGNEIod7AM-] foundSubmit result: zAik2COkvJrp65mdgDGNEIod7AM- has been confirmedTrack | CTDB Status 1 | (6/6) Accurately ripped 2 | (6/6) Accurately ripped 3 | (6/6) Accurately ripped 4 | (6/6) Accurately ripped 5 | (6/6) Accurately ripped 6 | (6/6) Accurately ripped 7 | (6/6) Accurately ripped 8 | (6/6) Accurately ripped 9 | (6/6) Accurately ripped 10 | (6/6) Accurately ripped 11 | (6/6) Accurately ripped 12 | (6/6) Accurately ripped 13 | (6/6) Accurately ripped 14 | (6/6) Accurately ripped 15 | (6/6) Accurately ripped 16 | (6/6) Accurately ripped 17 | (6/6) Accurately ripped 18 | (5/6) Accurately ripped
==== Log checksum CBCC41271975728DF54FE7BD5207F7D21A55879732EC3C7CA4DFA2AC29303A76 ====

Содержание индексной карты (.CUE)

REM GENRE PopREM DATE 1990REM DISCID 00113E12REM COMMENT "ExactAudioCopy v1.3"PERFORMER "VA"TITLE "Hits Of 1990 #3"REM COMPOSER ""FILE "01 - Heart - All I Wanna Do Is Make Love To You.wav" WAVE  TRACK 01 AUDIO    TITLE "All I Wanna Do Is Make Love To You"    PERFORMER "Heart"    REM COMPOSER ""    INDEX 01 00:00:00  TRACK 02 AUDIO    TITLE "Summer Rain"    PERFORMER "Belinda Carlisle"    REM COMPOSER ""    INDEX 00 04:33:17FILE "02 - Belinda Carlisle - Summer Rain.wav" WAVE    INDEX 01 00:00:00FILE "03 - The Angels - Dogs Are Talking.wav" WAVE  TRACK 03 AUDIO    TITLE "Dogs Are Talking"    PERFORMER "The Angels"    REM COMPOSER ""    INDEX 01 00:00:00FILE "04 - Joan Jett - Dirty Deeds.wav" WAVE  TRACK 04 AUDIO    TITLE "Dirty Deeds"    PERFORMER "Joan Jett"    REM COMPOSER ""    INDEX 01 00:00:00FILE "05 - Janet Jackson - Escapade.wav" WAVE  TRACK 05 AUDIO    TITLE "Escapade"    PERFORMER "Janet Jackson"    REM COMPOSER ""    INDEX 01 00:00:00FILE "06 - Absent Friends - I Don't Want To Be With Nobody But You.wav" WAVE  TRACK 06 AUDIO    TITLE "I Don't Want To Be With Nobody But You"    PERFORMER "Absent Friends"    REM COMPOSER ""    INDEX 01 00:00:00FILE "07 - 49ers - Touch Me.wav" WAVE  TRACK 07 AUDIO    TITLE "Touch Me"    PERFORMER "49ers"    REM COMPOSER ""    INDEX 01 00:00:00FILE "08 - Dannii - Love And Kisses.wav" WAVE  TRACK 08 AUDIO    TITLE "Love And Kisses"    PERFORMER "Dannii"    REM COMPOSER ""    INDEX 01 00:00:00FILE "09 - Soul II Soul - A Dreams A Dream.wav" WAVE  TRACK 09 AUDIO    TITLE "A Dreams A Dream"    PERFORMER "Soul II Soul"    REM COMPOSER ""    INDEX 01 00:00:00FILE "10 - The Church - Metropolis.wav" WAVE  TRACK 10 AUDIO    TITLE "Metropolis"    PERFORMER "The Church"    REM COMPOSER ""    INDEX 01 00:00:00FILE "11 - Sam Brown - With A Little Love.wav" WAVE  TRACK 11 AUDIO    TITLE "With A Little Love"    PERFORMER "Sam Brown"    REM COMPOSER ""    INDEX 01 00:00:00FILE "12 - Hunters And Collectors - The Way You Live.wav" WAVE  TRACK 12 AUDIO    TITLE "The Way You Live"    PERFORMER "Hunters And Collectors"    REM COMPOSER ""    INDEX 01 00:00:00FILE "13 - Candy Flip - Strawberry Fields Forever.wav" WAVE  TRACK 13 AUDIO    TITLE "Strawberry Fields Forever"    PERFORMER "Candy Flip"    REM COMPOSER ""    INDEX 01 00:00:00  TRACK 14 AUDIO    TITLE "Dub Be Good To Me"    PERFORMER "Beats International"    REM COMPOSER ""    INDEX 00 04:08:30FILE "14 - Beats International - Dub Be Good To Me.wav" WAVE    INDEX 01 00:00:00FILE "15 - Technotronic - Get Up.wav" WAVE  TRACK 15 AUDIO    TITLE "Get Up"    PERFORMER "Technotronic"    REM COMPOSER ""    INDEX 01 00:00:00FILE "16 - Tina Arena - I Need You Body.wav" WAVE  TRACK 16 AUDIO    TITLE "I Need You Body"    PERFORMER "Tina Arena"    REM COMPOSER ""    INDEX 01 00:00:00FILE "17 - D-Mob - C'Mon And Get My Love.wav" WAVE  TRACK 17 AUDIO    TITLE "C'Mon And Get My Love"    PERFORMER "D-Mob"    REM COMPOSER ""    INDEX 01 00:00:00FILE "18 - Kevin Paige - Don't Shut Me Out.wav" WAVE  TRACK 18 AUDIO    TITLE "Don't Shut Me Out"    PERFORMER "Kevin Paige"    REM COMPOSER ""    INDEX 01 00:00:00

AccurateRip

[CUETools log; Date: 06.05.2019 17:16:09; Version: 2.1.5][CTDB TOCID: zAik2COkvJrp65mdgDGNEIod7AM-] found.Track | CTDB Status  1   | (7/7) Accurately ripped  2   | (7/7) Accurately ripped  3   | (7/7) Accurately ripped  4   | (7/7) Accurately ripped  5   | (7/7) Accurately ripped  6   | (7/7) Accurately ripped  7   | (7/7) Accurately ripped  8   | (7/7) Accurately ripped  9   | (7/7) Accurately ripped 10   | (7/7) Accurately ripped 11   | (7/7) Accurately ripped 12   | (7/7) Accurately ripped 13   | (7/7) Accurately ripped 14   | (7/7) Accurately ripped 15   | (7/7) Accurately ripped 16   | (7/7) Accurately ripped 17   | (7/7) Accurately ripped 18   | (6/7) Accurately ripped[AccurateRip ID: 00303d61-02832333-00113e12] found.Track   [  CRC   |   V2   ] Status 01     [f2398408|78824268] (0+0/3) No match 02     [a5e6d5c9|4c6ac203] (0+0/5) No match 03     [68cb9f61|e835a8da] (0+0/5) No match 04     [d5b444d1|57964f2c] (0+2/7) Accurately ripped 05     [cf987feb|23c5019e] (0+0/5) No match 06     [143b6853|08174003] (0+0/5) No match 07     [1c2692af|497eae0b] (0+2/7) Accurately ripped 08     [5b42fec5|34899482] (0+0/5) No match 09     [f49c5964|71c02a42] (0+2/7) Accurately ripped 10     [cf2dc33a|fd02d837] (0+0/5) No match 11     [9fc4462d|2d155da3] (0+2/7) Accurately ripped 12     [20c2d184|df6bd2de] (0+0/5) No match 13     [2ba9dfda|a9a045dc] (0+2/6) Accurately ripped 14     [eeea00af|67f0a892] (0+2/7) Accurately ripped 15     [569bc551|12d017f5] (0+2/7) Accurately ripped 16     [7f0eb158|436674d5] (0+0/5) No match 17     [ea5ac618|b306684a] (0+2/7) Accurately ripped 18     [70310bff|98f6ec18] (0+2/7) Accurately rippedOffsetted by -86: 01     [92f8550a] (0/3) No match (V2 was not tested) 02     [c985f295] (0/5) No match (V2 was not tested) 03     [a46fa359] (0/5) No match (V2 was not tested) 04     [6b2a649f] (0/7) No match (V2 was not tested) 05     [850a889f] (0/5) No match (V2 was not tested) 06     [2a0cd1f1] (0/5) No match (V2 was not tested) 07     [083753a3] (0/7) No match (V2 was not tested) 08     [5c0289ab] (0/5) No match (V2 was not tested) 09     [7eafff04] (0/7) No match (V2 was not tested) 10     [df7e9ed2] (0/5) No match (V2 was not tested) 11     [163b374d] (0/7) No match (V2 was not tested) 12     [b820aa90] (0/5) No match (V2 was not tested) 13     [423484a8] (0/6) No match (V2 was not tested) 14     [e567dc31] (0/7) No match (V2 was not tested) 15     [b49d6819] (0/7) No match (V2 was not tested) 16     [ca61f5d8] (0/5) No match (V2 was not tested) 17     [ea3080a6] (0/7) No match (V2 was not tested) 18     [ae25da23] (0/7) No match (V2 was not tested)
Track Peak [ CRC32 ] [W/O NULL] [ LOG ] -- 87,8 [B0715994] [4A75AB9D] 01 80,6 [C32F893C] [DCD68D2E] CRC32 02 80,5 [1D579FC7] [6925A455] CRC32 03 72,4 [B2553867] [C2151DEE] CRC32 04 81,6 [D8697F4C] [27AF0CF1] CRC32 05 60,0 [ED05C926] [0641A2BF] CRC32 06 62,7 [1815A248] [51077B36] CRC32 07 59,9 [B083B2BE] [CC52765F] CRC32 08 75,7 [2488803D] [4232F665] CRC32 09 71,7 [C7694D4B] [B17BB950] CRC32 10 80,0 [4FEE31ED] [3FD19537] CRC32 11 86,0 [8D744A30] [62B1D21B] CRC32 12 86,3 [A6EE88ED] [5F8F44EC] CRC32 13 66,2 [67999DB7] [A46A72E3] CRC32 14 46,5 [A23E72B4] [93ABA505] CRC32 15 68,6 [F64F3308] [0E2384D0] CRC32 16 69,1 [F1A70840] [3A7AC583] CRC32 17 87,8 [5C30B07E] [3E0CC928] CRC32 18 83,9 [0D05E90A] [D323BFBC] CRC32

Photos - Front/Back/CD


If you like the topic, please click share to help develop our site.

To download the file disable ad blocking, and reload the page.

disable adblock How to disable ad blocking?

Download by magnet link 467 MB Download Torrent

Login using:

Similar topics



   
Current time is: 25-Jun 11:35 :: All times are UTC + 3