- David Ian - Valentine's Day (2014) Prescott Records - Жанр: Mainstream Jazz, Piano Jazz, Vocal Jazz
Издание: Prescott Records - PR0003
Продолжительность: 00:36:30
Кодек: FLAC (tracks+.cue)
Битрейт: Lossless
Источник (релизер): Chesco
Страна-производитель диска: USA
Наличие сканов в содержимом раздачи: да
Треклист:
01. Autumn Leaves [3:35]
02. My Funny Valentine (feat. Kevin Max) [4:04]
03. Stella by Starlight [2:32]
04. Solitude (feat. Acacia) [2:19]
05. Someday My Prince Will Come [3:23]
06. Emily [3:45]
07. Young and Foolish (feat. Andre Miguel Mayo) [3:21]
08. Summertime (feat. Talitha Walters-Wulfing) [2:43]
09. Night and Day [4:05]
10. There Will Never Be Another You [4:18]
11. Sweet By and By (feat. Russ Taff) [2:24]

Состав

David Ian - piano, guitar
Jon Estes - upright bass
Josh Hunt - drums, percussion
Elizabeth Estes - violin
Matt Nelson - cello
Kevin Max (2), Acacia (4), Andre Miguel Mayo (7), Talitha Walters-Wulfing (8), Russ Taff (11) - vocals

Отчёт EAC:

Exact Audio Copy V1.3 from 2. September 2016
EAC extraction logfile from 1. May 2019, 2:51
David Ian / Valentine's Day
Used drive : MATSHITADVD-RAM UJ8E2 Adapter: 1 ID: 0
Read mode : Secure
Utilize accurate stream : Yes
Defeat audio cache : Yes
Make use of C2 pointers : No
Read offset correction : 103
Overread into Lead-In and Lead-Out : No
Fill up missing offset samples with silence : Yes
Delete leading and trailing silent blocks : No
Null samples used in CRC calculations : Yes
Used interface : Native Win32 interface for Win NT & 2000
Gap handling : Appended to previous track
Used output format : User Defined Encoder
Selected bitrate : 1024 kBit/s
Quality : High
Add ID3 tag : No
Command line compressor : C:\Program Files (x86)\Exact Audio Copy\Flac\flac.exe
Additional command line options : -8 -V -T "ARTIST=%artist%" -T "TITLE=%title%" -T "ALBUM=%albumtitle%" -T "DATE=%year%" -T "TRACKNUMBER=%tracknr%" -T "GENRE=%genre%" -T "PERFORMER=%albuminterpret%" -T "COMPOSER=%composer%" %haslyrics%--tag-from-file=LYRICS="%lyricsfile%"%haslyrics% -T "ALBUMARTIST=%albumartist%" -T "DISCNUMBER=%cdnumber%" -T "TOTALDISCS=%totalcds%" -T "TOTALTRACKS=%numtracks%" -T "COMMENT=%comment%" %source% -o %dest%
TOC of the extracted CD
Track | Start | Length | Start sector | End sector
---------------------------------------------------------
1 | 0:00.00 | 3:35.24 | 0 | 16148
2 | 3:35.24 | 4:04.19 | 16149 | 34467
3 | 7:39.43 | 2:31.58 | 34468 | 45850
4 | 10:11.26 | 2:19.03 | 45851 | 56278
5 | 12:30.29 | 3:23.35 | 56279 | 71538
6 | 15:53.64 | 3:45.03 | 71539 | 88416
7 | 19:38.67 | 3:21.29 | 88417 | 103520
8 | 23:00.21 | 2:43.01 | 103521 | 115746
9 | 25:43.22 | 4:04.68 | 115747 | 134114
10 | 29:48.15 | 4:17.59 | 134115 | 153448
11 | 34:05.74 | 2:24.23 | 153449 | 164271
Track 1
Filename C:\EAC Rips\01 - Autumn Leaves - David Ian .wav
Pre-gap length 0:00:02.00
Peak level 100.0 %
Extraction speed 2.4 X
Track quality 100.0 %
Test CRC AB1BAB93
Copy CRC AB1BAB93
Accurately ripped (confidence 2) [37169E8D] (AR v2)
Copy OK
Track 2
Filename C:\EAC Rips\02 - My Funny Valentine - David Ian (feat. Kevin Max) .wav
Peak level 100.0 %
Extraction speed 2.7 X
Track quality 100.0 %
Test CRC 1251C0E7
Copy CRC 1251C0E7
Accurately ripped (confidence 2) [039C11E7] (AR v2)
Copy OK
Track 3
Filename C:\EAC Rips\03 - Stella By Starlight - David Ian .wav
Pre-gap length 0:00:02.04
Peak level 100.0 %
Extraction speed 2.7 X
Track quality 100.0 %
Test CRC 6001D74A
Copy CRC 6001D74A
Accurately ripped (confidence 2) [BF93DCE7] (AR v2)
Copy OK
Track 4
Filename C:\EAC Rips\04 - Solitude - David Ian (feat. Acacia) .wav
Pre-gap length 0:00:01.50
Peak level 100.0 %
Extraction speed 2.7 X
Track quality 100.0 %
Test CRC 68500D1F
Copy CRC 68500D1F
Accurately ripped (confidence 2) [3305C8E2] (AR v2)
Copy OK
Track 5
Filename C:\EAC Rips\05 - Someday My Prince Will Come - David Ian .wav
Pre-gap length 0:00:02.21
Peak level 100.0 %
Extraction speed 3.1 X
Track quality 100.0 %
Test CRC 54D43C0D
Copy CRC 54D43C0D
Accurately ripped (confidence 2) [61D7E9A8] (AR v2)
Copy OK
Track 6
Filename C:\EAC Rips\06 - Emily - David Ian .wav
Peak level 100.0 %
Extraction speed 3.3 X
Track quality 100.0 %
Test CRC 8D8E2B3C
Copy CRC 8D8E2B3C
Accurately ripped (confidence 2) [279D5B48] (AR v2)
Copy OK
Track 7
Filename C:\EAC Rips\07 - Young And Foolish - David Ian (feat. Andre Miguel Mayo) .wav
Pre-gap length 0:00:01.21
Peak level 100.0 %
Extraction speed 3.4 X
Track quality 100.0 %
Test CRC D65E8E95
Copy CRC D65E8E95
Accurately ripped (confidence 2) [59AB7CB8] (AR v2)
Copy OK
Track 8
Filename C:\EAC Rips\08 - Summertime - David Ian (feat. Talitha Walters-Wulfing) .wav
Pre-gap length 0:00:00.25
Peak level 96.6 %
Extraction speed 2.3 X
Track quality 99.9 %
Test CRC 30131208
Copy CRC 30131208
Accurately ripped (confidence 2) [2E5C60DF] (AR v2)
Copy OK
Track 9
Filename C:\EAC Rips\09 - Night And Day - David Ian .wav
Peak level 100.0 %
Extraction speed 3.8 X
Track quality 100.0 %
Test CRC 50E33E0A
Copy CRC 50E33E0A
Accurately ripped (confidence 2) [2CA37365] (AR v2)
Copy OK
Track 10
Filename C:\EAC Rips\10 - There Will Never Be Another You - David Ian .wav
Peak level 100.0 %
Extraction speed 4.0 X
Track quality 100.0 %
Test CRC 923C6B7A
Copy CRC 923C6B7A
Accurately ripped (confidence 2) [D29FC44C] (AR v2)
Copy OK
Track 11
Filename C:\EAC Rips\11 - Sweet By And By - David Ian (feat. Russ Taff) .wav
Peak level 99.8 %
Extraction speed 3.8 X
Track quality 100.0 %
Test CRC 85D95B6A
Copy CRC 85D95B6A
Accurately ripped (confidence 2) [9C5B4477] (AR v2)
Copy OK
All tracks accurately ripped
No errors occurred
End of status report
---- CUETools DB Plugin V2.1.6
[CTDB TOCID: cjpWyUAFpq4koq.ZYtNhcFfAa0Q-] found
Submit result: cjpWyUAFpq4koq.ZYtNhcFfAa0Q- has been confirmed
Track | CTDB Status
1 | (1/1) Accurately ripped
2 | (1/1) Accurately ripped
3 | (1/1) Accurately ripped
4 | (1/1) Accurately ripped
5 | (1/1) Accurately ripped
6 | (1/1) Accurately ripped
7 | (1/1) Accurately ripped
8 | (1/1) Accurately ripped
9 | (1/1) Accurately ripped
10 | (1/1) Accurately ripped
11 | (1/1) Accurately ripped
==== Log checksum BEC6C20BF61972395EAEEE37C6BE5A29B4F1C10DF384C108D2F75F2CDD66E473 ====
Время раздачи: c 15:00 до 22:00 (до появления первых 3-5 скачавших)-

Поглощение/вытеснение
Только с согласия релизера

Beijing65

If you like the topic, please click share to help develop our site.

To download the file disable ad blocking, and reload the page.

disable adblock How to disable ad blocking?

Download by magnet link 194 MB Download Torrent

Login using:

Similar topics



   
Current time is: 25-Jun 10:37 :: All times are UTC + 3