T-Connection Collection (5CDAlbums)

Жанр: Funk / Soul, Disco
Носитель: CD
Страна-производитель диска (релиза): japan/ usa
Годы издания: 1996 - 2019
Страна исполнителя (группы): usa
Аудиокодек: FLAC (*.flac)
Тип рипа: tracks+.cue
Битрейт аудио: lossless
Продолжительность: 5 ~ 03h 08min 53sec
Источник (релизер): собственный рип
Наличие сканов в содержимом раздачи: да

1977 - Magic - 36:59

Страна-производитель диска: Japan
Год выпуска диска: 2019
Тип издания: CD, Album, Reissue, Remastered
Серия: The Miami Sound: Original Soul/Funk/Disco Collection
Издатель (лейбл): Solid Records, T.K. Records
Номер по каталогу: CDSOL-5672
Треклист
01 Do What Ya Wanna Do (07:03)
02 Disco Magic (06:59)
03 Go Back Home (03:38)
04 Got To See My Lady (04:29)
05 Crazy Mixed Up World (03:06)
06 Mothers Love (03:26)
07 Monday Morning (03:23)
08 Peace Line (04:53)

Лог создания рипа

Exact Audio Copy V1.0 beta 2 from 29. April 2011
Отчёт EAC об извлечении, выполненном 30. апреля 2019, 12:31
T-Connection / Magic
Дисковод: ASUS DRW-24D5MT Adapter: 0 ID: 1
Режим чтения : ДостоверностьИспользование точного потока : ДаОтключение кэша аудио : ДаИспользование указателей C2 : Нет
Коррекция смещения при чтении : 6Способность читать области Lead-in и Lead-out : НетЗаполнение пропущенных сэмплов тишиной : ДаУдаление блоков с тишиной в начале и конце : НетПри вычислениях CRC использовались нулевые сэмплы : ДаИнтерфейс : Встроенный Win32-интерфейс для Win NT/2000Обработка зазоров : Добавлено к предыдущему треку
Выходной формат : Пользовательский кодировщикВыбранный битрейт : 128 kBit/sКачество : ВысокийДобавление ID3-тега : НетУтилита сжатия : C:\Program Files\Exact Audio Copy\FLAC\FLAC.EXEДополнительные параметры : -8 -V -T "ARTIST=%artist%" -T "TITLE=%title%" -T "ALBUM=%albumtitle%" -T "DATE=%year%" -T "TRACKNUMBER=%tracknr%" -T "GENRE=%genre%" -T "COMMENT=%comment%" -T "BAND=%albuminterpret%" -T "COMPOSER=%composer%" %haslyrics%--tag-from-
TOC извлечённого CD
Трек | Старт | Длительность | Начальный сектор | Конечный сектор --------------------------------------------------------------------- 1 | 0:00.00 | 7:03.04 | 0 | 31728 2 | 7:03.04 | 6:59.43 | 31729 | 63196 3 | 14:02.47 | 3:38.67 | 63197 | 79613 4 | 17:41.39 | 4:29.02 | 79614 | 99790 5 | 22:10.41 | 3:06.38 | 99791 | 113778 6 | 25:17.04 | 3:26.02 | 113779 | 129230 7 | 28:43.06 | 3:23.18 | 129231 | 144473 8 | 32:06.24 | 4:53.29 | 144474 | 166477
Трек 1
Имя файла D:\FLAC\01 Do What Ya Wanna Do.wav
Длина предзазора 0:00:02.00
Пиковый уровень 97.8 % Скорость извлечения 4.8 X Качество трека 100.0 % CRC теста BC542FC6 CRC копии BC542FC6 Трек не обнаружен в базе AccurateRip Копирование... OK
Трек 2
Имя файла D:\FLAC\02 Disco Magic.wav
Пиковый уровень 97.8 % Скорость извлечения 5.6 X Качество трека 100.0 % CRC теста 8F52B691 CRC копии 8F52B691 Трек не обнаружен в базе AccurateRip Копирование... OK
Трек 3
Имя файла D:\FLAC\03 Go Back Home.wav
Пиковый уровень 97.8 % Скорость извлечения 5.7 X Качество трека 100.0 % CRC теста E3851184 CRC копии E3851184 Трек не обнаружен в базе AccurateRip Копирование... OK
Трек 4
Имя файла D:\FLAC\04 Got To See My Lady.wav
Пиковый уровень 97.8 % Скорость извлечения 6.2 X Качество трека 100.0 % CRC теста 99B16DBC CRC копии 99B16DBC Трек не обнаружен в базе AccurateRip Копирование... OK
Трек 5
Имя файла D:\FLAC\05 Crazy Mixed Up World.wav
Пиковый уровень 97.8 % Скорость извлечения 6.1 X Качество трека 100.0 % CRC теста 3456DB7E CRC копии 3456DB7E Трек не обнаружен в базе AccurateRip Копирование... OK
Трек 6
Имя файла D:\FLAC\06 Mothers Love.wav
Пиковый уровень 97.8 % Скорость извлечения 6.6 X Качество трека 100.0 % CRC теста 3E185639 CRC копии 3E185639 Трек не обнаружен в базе AccurateRip Копирование... OK
Трек 7
Имя файла D:\FLAC\07 Monday Morning.wav
Пиковый уровень 97.8 % Скорость извлечения 6.7 X Качество трека 100.0 % CRC теста BAE26487 CRC копии BAE26487 Трек не обнаружен в базе AccurateRip Копирование... OK
Трек 8
Имя файла D:\FLAC\08 Peace Line.wav
Пиковый уровень 97.8 % Скорость извлечения 7.3 X Качество трека 100.0 % CRC теста 99AF4BC8 CRC копии 99AF4BC8 Трек не обнаружен в базе AccurateRip Копирование... OK
Ни одного трека нет в базе AccurateRip
Ошибок не произошло
Конец отчёта
#ИМЯ?
[CTDB TOCID: H4wkMNwkYkqrUJP4f7yRP4X4D.U-] disk not present in databaseSubmit result: H4wkMNwkYkqrUJP4f7yRP4X4D.U- has been uploaded
==== Контрольная сумма отчёта B619097FDFB82830D5F246458BFB65A447D7052D99169B5917B085C44D5A91C3 ====

Содержание индексной карты (.CUE)

REM DATE 2019REM DISCID 6308AB08REM COMMENT "ExactAudioCopy v1.0b2"PERFORMER "T-Connection"TITLE "Magic"FILE "01 Do What Ya Wanna Do.wav" WAVE  TRACK 01 AUDIO    TITLE "Do What Ya Wanna Do"    PERFORMER "T-Connection"    INDEX 01 00:00:00FILE "02 Disco Magic.wav" WAVE  TRACK 02 AUDIO    TITLE "Disco Magic"    PERFORMER "T-Connection"    INDEX 01 00:00:00FILE "03 Go Back Home.wav" WAVE  TRACK 03 AUDIO    TITLE "Go Back Home"    PERFORMER "T-Connection"    INDEX 01 00:00:00FILE "04 Got To See My Lady.wav" WAVE  TRACK 04 AUDIO    TITLE "Got To See My Lady"    PERFORMER "T-Connection"    INDEX 01 00:00:00FILE "05 Crazy Mixed Up World.wav" WAVE  TRACK 05 AUDIO    TITLE "Crazy Mixed Up World"    PERFORMER "T-Connection"    INDEX 01 00:00:00FILE "06 Mothers Love.wav" WAVE  TRACK 06 AUDIO    TITLE "Mothers Love"    PERFORMER "T-Connection"    INDEX 01 00:00:00FILE "07 Monday Morning.wav" WAVE  TRACK 07 AUDIO    TITLE "Monday Morning"    PERFORMER "T-Connection"    INDEX 01 00:00:00FILE "08 Peace Line.wav" WAVE  TRACK 08 AUDIO    TITLE "Peace Line"    PERFORMER "T-Connection"    INDEX 01 00:00:00

1977 - On Fire - 37:58

Страна-производитель диска: Japan
Год выпуска диска: 2019
Серия: The Miami Sound: Original Soul/Funk/Disco Collection
Тип издания: CD, Album, Limited Edition, Reissue, Remastered
Издатель (лейбл): Solid Records, T.K. Records
Номер по каталогу: CDSOL-5673
Треклист
01 On Fire (07:12)
02 Prisoner Of My Mind (04:40)
03 Lady Of The Night (03:26)
04 Watching You (03:31)
05 Let Yourself Go (04:55)
06 Groove To Get Down (04:12)
07 Cush (06:10)
08 Playin' Games (03:50)

Лог создания рипа

Exact Audio Copy V1.0 beta 2 from 29. April 2011
Отчёт EAC об извлечении, выполненном 28. апреля 2019, 22:44
T-Connection / On Fire
Дисковод: ASUS DRW-24D5MT Adapter: 0 ID: 1
Режим чтения : ДостоверностьИспользование точного потока : ДаОтключение кэша аудио : ДаИспользование указателей C2 : Нет
Коррекция смещения при чтении : 6Способность читать области Lead-in и Lead-out : НетЗаполнение пропущенных сэмплов тишиной : ДаУдаление блоков с тишиной в начале и конце : НетПри вычислениях CRC использовались нулевые сэмплы : ДаИнтерфейс : Встроенный Win32-интерфейс для Win NT/2000Обработка зазоров : Добавлено к предыдущему треку
Выходной формат : Пользовательский кодировщикВыбранный битрейт : 128 kBit/sКачество : ВысокийДобавление ID3-тега : НетУтилита сжатия : C:\Program Files\Exact Audio Copy\FLAC\FLAC.EXEДополнительные параметры : -8 -V -T "ARTIST=%artist%" -T "TITLE=%title%" -T "ALBUM=%albumtitle%" -T "DATE=%year%" -T "TRACKNUMBER=%tracknr%" -T "GENRE=%genre%" -T "COMMENT=%comment%" -T "BAND=%albuminterpret%" -T "COMPOSER=%composer%" %haslyrics%--tag-from-
TOC извлечённого CD
Трек | Старт | Длительность | Начальный сектор | Конечный сектор --------------------------------------------------------------------- 1 | 0:00.00 | 7:12.12 | 0 | 32411 2 | 7:12.12 | 4:40.57 | 32412 | 53468 3 | 11:52.69 | 3:26.63 | 53469 | 68981 4 | 15:19.57 | 3:31.24 | 68982 | 84830 5 | 18:51.06 | 4:55.11 | 84831 | 106966 6 | 23:46.17 | 4:12.02 | 106967 | 125868 7 | 27:58.19 | 6:10.24 | 125869 | 153642 8 | 34:08.43 | 3:50.06 | 153643 | 170898
Трек 1
Имя файла D:\FLAC\01 On Fire.wav
Длина предзазора 0:00:02.00
Пиковый уровень 97.8 % Скорость извлечения 4.8 X Качество трека 100.0 % CRC теста 9BAA55A0 CRC копии 9BAA55A0 Трек не обнаружен в базе AccurateRip Копирование... OK
Трек 2
Имя файла D:\FLAC\02 Prisoner Of My Mind.wav
Пиковый уровень 97.8 % Скорость извлечения 5.3 X Качество трека 100.0 % CRC теста 22A9B143 CRC копии 22A9B143 Трек не обнаружен в базе AccurateRip Копирование... OK
Трек 3
Имя файла D:\FLAC\03 Lady Of The Night.wav
Пиковый уровень 97.8 % Скорость извлечения 4.8 X Качество трека 99.9 % CRC теста E2749AC6 CRC копии E2749AC6 Трек не обнаружен в базе AccurateRip Копирование... OK
Трек 4
Имя файла D:\FLAC\04 Watching You.wav
Пиковый уровень 97.8 % Скорость извлечения 5.7 X Качество трека 100.0 % CRC теста 9BFEF43F CRC копии 9BFEF43F Трек не обнаружен в базе AccurateRip Копирование... OK
Трек 5
Имя файла D:\FLAC\05 Let Yourself Go.wav
Пиковый уровень 97.8 % Скорость извлечения 5.7 X Качество трека 99.9 % CRC теста 1B5169B0 CRC копии 1B5169B0 Трек не обнаружен в базе AccurateRip Копирование... OK
Трек 6
Имя файла D:\FLAC\06 Groove To Get Down.wav
Пиковый уровень 97.8 % Скорость извлечения 6.5 X Качество трека 100.0 % CRC теста C1D8BE40 CRC копии C1D8BE40 Трек не обнаружен в базе AccurateRip Копирование... OK
Трек 7
Имя файла D:\FLAC\07 Cush.wav
Пиковый уровень 97.8 % Скорость извлечения 7.2 X Качество трека 100.0 % CRC теста 09EAFDDF CRC копии 09EAFDDF Трек не обнаружен в базе AccurateRip Копирование... OK
Трек 8
Имя файла D:\FLAC\08 Playin' Games.wav
Пиковый уровень 97.8 % Скорость извлечения 6.3 X Качество трека 99.9 % CRC теста E94BA9FD CRC копии E94BA9FD Трек не обнаружен в базе AccurateRip Копирование... OK
Ни одного трека нет в базе AccurateRip
Ошибок не произошло
Конец отчёта
#ИМЯ?
[CTDB TOCID: nAkv7aGVRA5PxJCCwNv1VqAsIlI-] disk not present in databaseSubmit result: nAkv7aGVRA5PxJCCwNv1VqAsIlI- has been uploaded
==== Контрольная сумма отчёта A9041BDCC1E035F61795974F5CCD618C4CB3443DBBB690C1BB118BFD15C05E1E ====

Содержание индексной карты (.CUE)

REM DISCID 5208E608REM COMMENT "ExactAudioCopy v1.0b2"PERFORMER "T-Connection"TITLE "On Fire"FILE "01 On Fire.wav" WAVE  TRACK 01 AUDIO    TITLE "On Fire"    PERFORMER "T-Connection"    INDEX 01 00:00:00FILE "02 Prisoner Of My Mind.wav" WAVE  TRACK 02 AUDIO    TITLE "Prisoner Of My Mind"    PERFORMER "T-Connection"    INDEX 01 00:00:00FILE "03 Lady Of The Night.wav" WAVE  TRACK 03 AUDIO    TITLE "Lady Of The Night"    PERFORMER "T-Connection"    INDEX 01 00:00:00FILE "04 Watching You.wav" WAVE  TRACK 04 AUDIO    TITLE "Watching You"    PERFORMER "T-Connection"    INDEX 01 00:00:00FILE "05 Let Yourself Go.wav" WAVE  TRACK 05 AUDIO    TITLE "Let Yourself Go"    PERFORMER "T-Connection"    INDEX 01 00:00:00FILE "06 Groove To Get Down.wav" WAVE  TRACK 06 AUDIO    TITLE "Groove To Get Down"    PERFORMER "T-Connection"    INDEX 01 00:00:00FILE "07 Cush.wav" WAVE  TRACK 07 AUDIO    TITLE "Cush"    PERFORMER "T-Connection"    INDEX 01 00:00:00FILE "08 Playin' Games.wav" WAVE  TRACK 08 AUDIO    TITLE "Playin' Games"    PERFORMER "T-Connection"    INDEX 01 00:00:00

1978 - T-Connection - 36:35

Страна-производитель диска: Japan
Год выпуска диска: 2014
Серия: 1000 R&B Best Collection
Тип издания: CD, Album, Reissue, Remastered, Limited Edition
Издатель (лейбл): Parlophone
Номер по каталогу: WPCR-27743
Треклист
01 Funkannection (05:10)
02 Coming Back For More (03:32)
03 Funky Lady (03:59)
04 Don't Stop The Music (04:36)
05 Saturday Night (04:30)
06 At Midnight (05:08)
07 Midnight Train (04:34)
08 Love Supreme (05:02)

Лог создания рипа

Exact Audio Copy V1.0 beta 2 from 29. April 2011
Отчёт EAC об извлечении, выполненном 6. мая 2019, 12:32
T-Connection / T-Connection
Дисковод: ASUS DRW-24D5MT Adapter: 0 ID: 1
Режим чтения : ДостоверностьИспользование точного потока : ДаОтключение кэша аудио : ДаИспользование указателей C2 : Нет
Коррекция смещения при чтении : 6Способность читать области Lead-in и Lead-out : НетЗаполнение пропущенных сэмплов тишиной : ДаУдаление блоков с тишиной в начале и конце : НетПри вычислениях CRC использовались нулевые сэмплы : ДаИнтерфейс : Встроенный Win32-интерфейс для Win NT/2000Обработка зазоров : Добавлено к предыдущему треку
Выходной формат : Пользовательский кодировщикВыбранный битрейт : 128 kBit/sКачество : ВысокийДобавление ID3-тега : НетУтилита сжатия : C:\Program Files\Exact Audio Copy\FLAC\FLAC.EXEДополнительные параметры : -8 -V -T "ARTIST=%artist%" -T "TITLE=%title%" -T "ALBUM=%albumtitle%" -T "DATE=%year%" -T "TRACKNUMBER=%tracknr%" -T "GENRE=%genre%" -T "COMMENT=%comment%" -T "BAND=%albuminterpret%" -T "COMPOSER=%composer%" %haslyrics%--tag-from-
TOC извлечённого CD
Трек | Старт | Длительность | Начальный сектор | Конечный сектор --------------------------------------------------------------------- 1 | 0:00.00 | 5:10.35 | 0 | 23284 2 | 5:10.35 | 3:32.35 | 23285 | 39219 3 | 8:42.70 | 3:59.71 | 39220 | 57215 4 | 12:42.66 | 4:36.55 | 57216 | 77970 5 | 17:19.46 | 4:30.11 | 77971 | 98231 6 | 21:49.57 | 5:08.66 | 98232 | 121397 7 | 26:58.48 | 4:34.10 | 121398 | 141957 8 | 31:32.58 | 5:02.38 | 141958 | 164645
Трек 1
Имя файла D:\FLAC\01 Funkannection.wav
Длина предзазора 0:00:02.00
Пиковый уровень 100.0 % Скорость извлечения 4.2 X Качество трека 100.0 % CRC теста 60C305C5 CRC копии 60C305C5 Точное извлечение (достоверность 4) [B5101684] (AR v2) Копирование... OK
Трек 2
Имя файла D:\FLAC\02 Coming Back For More.wav
Длина предзазора 0:00:01.45
Пиковый уровень 100.0 % Скорость извлечения 4.1 X Качество трека 99.9 % CRC теста 129C5DF7 CRC копии 129C5DF7 Точное извлечение (достоверность 4) [C589AE88] (AR v2) Копирование... OK
Трек 3
Имя файла D:\FLAC\03 Funky Lady.wav
Длина предзазора 0:00:02.02
Пиковый уровень 100.0 % Скорость извлечения 5.1 X Качество трека 100.0 % CRC теста 27C3E262 CRC копии 27C3E262 Точное извлечение (достоверность 4) [ECC44A27] (AR v2) Копирование... OK
Трек 4
Имя файла D:\FLAC\04 Don't Stop The Music.wav
Длина предзазора 0:00:01.33
Пиковый уровень 100.0 % Скорость извлечения 5.6 X Качество трека 100.0 % CRC теста 82C1C663 CRC копии 82C1C663 Точное извлечение (достоверность 4) [310AEB8C] (AR v2) Копирование... OK
Трек 5
Имя файла D:\FLAC\05 Saturday Night.wav
Длина предзазора 0:00:02.42
Пиковый уровень 100.0 % Скорость извлечения 5.9 X Качество трека 100.0 % CRC теста 8A114FCA CRC копии 8A114FCA Точное извлечение (достоверность 4) [0A950007] (AR v2) Копирование... OK
Трек 6
Имя файла D:\FLAC\06 At Midnight.wav
Длина предзазора 0:00:01.42
Пиковый уровень 100.0 % Скорость извлечения 6.5 X Качество трека 100.0 % CRC теста BF826704 CRC копии BF826704 Точное извлечение (достоверность 4) [49977664] (AR v2) Копирование... OK
Трек 7
Имя файла D:\FLAC\07 Midnight Train.wav
Длина предзазора 0:00:01.36
Пиковый уровень 100.0 % Скорость извлечения 6.7 X Качество трека 100.0 % CRC теста 86741A1E CRC копии 86741A1E Точное извлечение (достоверность 4) [6FAA8F00] (AR v2) Копирование... OK
Трек 8
Имя файла D:\FLAC\08 Love Supreme.wav
Длина предзазора 0:00:00.40
Пиковый уровень 100.0 % Скорость извлечения 7.0 X Качество трека 100.0 % CRC теста C8D688A2 CRC копии C8D688A2 Точное извлечение (достоверность 4) [F1ED2803] (AR v2) Копирование... OK
Все треки извлечены точно
Ошибок не произошло
Конец отчёта
#ИМЯ?
[CTDB TOCID: Ngpqc7rYs4FiGO9SPH8HOXjwCok-] foundSubmit result: Ngpqc7rYs4FiGO9SPH8HOXjwCok- has been confirmedTrack | CTDB Status 1 | (6/6) Accurately ripped 2 | (6/6) Accurately ripped 3 | (6/6) Accurately ripped 4 | (6/6) Accurately ripped 5 | (6/6) Accurately ripped 6 | (6/6) Accurately ripped 7 | (6/6) Accurately ripped 8 | (6/6) Accurately ripped
==== Контрольная сумма отчёта 0C33B051A421763ABE369B332869A22E1E6C229350991F614E79BCECD7D279B1 ====

Содержание индексной карты (.CUE)

REM GENRE FunkREM DATE 1978REM DISCID 4F089308REM COMMENT "ExactAudioCopy v1.0b2"CATALOG 4943674165285PERFORMER "T-Connection"TITLE "T-Connection"FILE "01 Funkannection.wav" WAVE  TRACK 01 AUDIO    TITLE "Funkannection"    PERFORMER "T-Connection"    INDEX 01 00:00:00  TRACK 02 AUDIO    TITLE "Coming Back For More"    PERFORMER "T-Connection"    INDEX 00 05:08:65FILE "02 Coming Back For More.wav" WAVE    INDEX 01 00:00:00  TRACK 03 AUDIO    TITLE "Funky Lady"    PERFORMER "T-Connection"    INDEX 00 03:30:33FILE "03 Funky Lady.wav" WAVE    INDEX 01 00:00:00  TRACK 04 AUDIO    TITLE "Don't Stop The Music"    PERFORMER "T-Connection"    INDEX 00 03:58:38FILE "04 Don't Stop The Music.wav" WAVE    INDEX 01 00:00:00  TRACK 05 AUDIO    TITLE "Saturday Night"    PERFORMER "T-Connection"    INDEX 00 04:34:13FILE "05 Saturday Night.wav" WAVE    INDEX 01 00:00:00  TRACK 06 AUDIO    TITLE "At Midnight"    PERFORMER "T-Connection"    INDEX 00 04:28:44FILE "06 At Midnight.wav" WAVE    INDEX 01 00:00:00  TRACK 07 AUDIO    TITLE "Midnight Train"    PERFORMER "T-Connection"    INDEX 00 05:07:30FILE "07 Midnight Train.wav" WAVE    INDEX 01 00:00:00  TRACK 08 AUDIO    TITLE "Love Supreme"    PERFORMER "T-Connection"    INDEX 00 04:33:45FILE "08 Love Supreme.wav" WAVE    INDEX 01 00:00:00

1979 - Totally Connected - 38:01

Страна-производитель диска: Japan
Год выпуска диска: 2014
Серия: 1000 R&B Best Collection
Тип издания: CD, Album, Reissue, Remastered, Limited Edition
Издатель (лейбл): Parlophone
Номер по каталогу: WPCR-27743
Треклист
01 Totally Connected (05:21)
02 Ectasy (04:40)
03 Let's Do It Today (04:04)
04 I Like Funkin' With You (05:02)
05 Choosing (06:06)
06 That's Love (04:21)
07 Danger Zone (04:20)
08 Born To Boogie (04:04)

Лог создания рипа

Exact Audio Copy V1.0 beta 2 from 29. April 2011
Отчёт EAC об извлечении, выполненном 12. марта 2019, 21:48
T-Connection / Totally Connected
Дисковод: ASUS DRW-24D5MT Adapter: 0 ID: 1
Режим чтения : ДостоверностьИспользование точного потока : ДаОтключение кэша аудио : ДаИспользование указателей C2 : Нет
Коррекция смещения при чтении : 6Способность читать области Lead-in и Lead-out : НетЗаполнение пропущенных сэмплов тишиной : ДаУдаление блоков с тишиной в начале и конце : НетПри вычислениях CRC использовались нулевые сэмплы : ДаИнтерфейс : Встроенный Win32-интерфейс для Win NT/2000Обработка зазоров : Добавлено к предыдущему треку
Выходной формат : Пользовательский кодировщикВыбранный битрейт : 128 kBit/sКачество : ВысокийДобавление ID3-тега : НетУтилита сжатия : C:\Program Files\Exact Audio Copy\FLAC\FLAC.EXEДополнительные параметры : -8 -V -T "ARTIST=%artist%" -T "TITLE=%title%" -T "ALBUM=%albumtitle%" -T "DATE=
%year%" -T "TRACKNUMBER=%tracknr%" -T "GENRE=%genre%" -T "COMMENT=%comment%" -T "BAND=
%albuminterpret%" -T "COMPOSER=%composer%" %haslyrics%--tag-from-
TOC извлечённого CD
Трек | Старт | Длительность | Начальный сектор | Конечный сектор --------------------------------------------------------------------- 1 | 0:00.00 | 5:21.35 | 0 | 24109 2 | 5:21.35 | 4:40.17 | 24110 | 45126 3 | 10:01.52 | 4:04.71 | 45127 | 63497 4 | 14:06.48 | 5:02.61 | 63498 | 86208 5 | 19:09.34 | 6:06.10 | 86209 | 113668 6 | 25:15.44 | 4:21.24 | 113669 | 133267 7 | 29:36.68 | 4:20.19 | 133268 | 152786 8 | 33:57.12 | 4:04.48 | 152787 | 171134
Трек 1
Имя файла D:\FLAC\01 Totally Connected.wav
Длина предзазора 0:00:02.00
Пиковый уровень 100.0 % Скорость извлечения 4.4 X Качество трека 100.0 % CRC теста C1D70125 CRC копии C1D70125 Точное извлечение (достоверность 6) [C12ADAF3] (AR v2) Копирование... OK
Трек 2
Имя файла D:\FLAC\02 Ectasy.wav
Пиковый уровень 100.0 % Скорость извлечения 4.9 X Качество трека 100.0 % CRC теста 61000CCD CRC копии 61000CCD Точное извлечение (достоверность 7) [08C3C2CF] (AR v2) Копирование... OK
Трек 3
Имя файла D:\FLAC\03 Let's Do It Today.wav
Длина предзазора 0:00:00.51
Пиковый уровень 100.0 % Скорость извлечения 5.3 X Качество трека 100.0 % CRC теста B2EBC1A6 CRC копии B2EBC1A6 Точное извлечение (достоверность 6) [8AF04F67] (AR v2) Копирование... OK
Трек 4
Имя файла D:\FLAC\04 I Like Funkin' With You.wav
Длина предзазора 0:00:00.54
Пиковый уровень 100.0 % Скорость извлечения 5.8 X Качество трека 100.0 % CRC теста D0EE3E69 CRC копии D0EE3E69 Точное извлечение (достоверность 6) [A3AD0FE4] (AR v2) Копирование... OK
Трек 5
Имя файла D:\FLAC\05 Choosing.wav
Длина предзазора 0:00:01.24
Пиковый уровень 100.0 % Скорость извлечения 6.3 X Качество трека 100.0 % CRC теста 42CD7846 CRC копии 42CD7846 Точное извлечение (достоверность 7) [9FAD5242] (AR v2) Копирование... OK
Трек 6
Имя файла D:\FLAC\06 That's Love.wav
Длина предзазора 0:00:00.31
Пиковый уровень 100.0 % Скорость извлечения 6.5 X Качество трека 100.0 % CRC теста EBE37C28 CRC копии EBE37C28 Точное извлечение (достоверность 6) [A4465F23] (AR v2) Копирование... OK
Трек 7
Имя файла D:\FLAC\07 Danger Zone.wav
Длина предзазора 0:00:00.46
Пиковый уровень 100.0 % Скорость извлечения 6.1 X Качество трека 99.9 % CRC теста A9F7A5FF CRC копии A9F7A5FF Точное извлечение (достоверность 6) [A0597D15] (AR v2) Копирование... OK
Трек 8
Имя файла D:\FLAC\08 Born To Boogie.wav
Длина предзазора 0:00:02.18
Пиковый уровень 100.0 % Скорость извлечения 7.0 X Качество трека 100.0 % CRC теста 3F73AAF1 CRC копии 3F73AAF1 Точное извлечение (достоверность 7) [F3CCA02C] (AR v2) Копирование... OK
Все треки извлечены точно
Ошибок не произошло
Конец отчёта
#ИМЯ?
[CTDB TOCID: pWPUKe8Lp9ueZ3iZ5rm5lRtSCYk-] foundSubmit result: pWPUKe8Lp9ueZ3iZ5rm5lRtSCYk- has been confirmedTrack | CTDB Status 1 | (10/10) Accurately ripped 2 | (10/10) Accurately ripped 3 | (10/10) Accurately ripped 4 | (10/10) Accurately ripped 5 | (10/10) Accurately ripped 6 | (10/10) Accurately ripped 7 | (10/10) Accurately ripped 8 | (10/10) Accurately ripped
==== Контрольная сумма отчёта 160798CC646C49B5CA636B9AD0D705D11A3A0B7408D5B3E4C666B589467865D9 ====

Содержание индексной карты (.CUE)

REM GENRE FunkREM DATE 1979REM DISCID 6208E908REM COMMENT "ExactAudioCopy v1.0b2"CATALOG 4943674165292PERFORMER "T-Connection"TITLE "Totally Connected "FILE "01 Totally Connected.wav" WAVE  TRACK 01 AUDIO    TITLE "Totally Connected"    PERFORMER "T-Connection"    INDEX 01 00:00:00FILE "02 Ectasy.wav" WAVE  TRACK 02 AUDIO    TITLE "Ectasy"    PERFORMER "T-Connection"    INDEX 01 00:00:00  TRACK 03 AUDIO    TITLE "Let's Do It Today"    PERFORMER "T-Connection"    INDEX 00 04:39:41FILE "03 Let's Do It Today.wav" WAVE    INDEX 01 00:00:00  TRACK 04 AUDIO    TITLE "I Like Funkin' With You"    PERFORMER "T-Connection"    INDEX 00 04:04:17FILE "04 I Like Funkin' With You.wav" WAVE    INDEX 01 00:00:00  TRACK 05 AUDIO    TITLE "Choosing"    PERFORMER "T-Connection"    INDEX 00 05:01:37FILE "05 Choosing.wav" WAVE    INDEX 01 00:00:00  TRACK 06 AUDIO    TITLE "That's Love"    PERFORMER "T-Connection"    INDEX 00 06:05:54FILE "06 That's Love.wav" WAVE    INDEX 01 00:00:00  TRACK 07 AUDIO    TITLE "Danger Zone"    PERFORMER "T-Connection"    INDEX 00 04:20:53FILE "07 Danger Zone.wav" WAVE    INDEX 01 00:00:00  TRACK 08 AUDIO    TITLE "Born To Boogie"    PERFORMER "T-Connection"    INDEX 00 04:18:01FILE "08 Born To Boogie.wav" WAVE    INDEX 01 00:00:00

1996 - Everything's Still Cool – The Best Of T-Connection - 36:59

Страна-производитель диска: usa
Год выпуска диска: 1996
Тип издания: CD, Compilation
Серия: Heart Of Soul
Издатель (лейбл): EMI Records
Номер по каталогу: E2-55333 / 7243 8 55333 2 7
Треклист
01 Everything Is Cool (04:26)
02 Spinnin' (0435)
03 A Little More Love (04:41)
04 The Best Of My Love (06:11)
05 Slippin' Away (04:24)
06 Give Me Your Love (03:40)
07 Heaven In Your Eyes (05:34)
08 Paradise (05:20)
09 We've Got A Good Thing (04:10)
10 Goombay Time (04:22)
11 Spend The Night With Me (04:49)
12 In Another Life (05:06)
13 Girl Watching (04:49)
14 Groove City (05:18)

Лог создания рипа

Exact Audio Copy V1.0 beta 2 from 29. April 2011
Отчёт EAC об извлечении, выполненном 12. марта 2019, 14:55
T Connection / Everything's Still Cool (Best Of)
Дисковод: ASUS DRW-24D5MT Adapter: 0 ID: 1
Режим чтения : ДостоверностьИспользование точного потока : ДаОтключение кэша аудио : ДаИспользование указателей C2 : Нет
Коррекция смещения при чтении : 6Способность читать области Lead-in и Lead-out : НетЗаполнение пропущенных сэмплов тишиной : ДаУдаление блоков с тишиной в начале и конце : НетПри вычислениях CRC использовались нулевые сэмплы : ДаИнтерфейс : Встроенный Win32-интерфейс для Win NT/2000Обработка зазоров : Добавлено к предыдущему треку
Выходной формат : Пользовательский кодировщикВыбранный битрейт : 128 kBit/sКачество : ВысокийДобавление ID3-тега : НетУтилита сжатия : C:\Program Files\Exact Audio Copy\FLAC\FLAC.EXEДополнительные параметры : -8 -V -T "ARTIST=%artist%" -T "TITLE=%title%" -T "ALBUM=%albumtitle%" -T "DATE=%year%" -T "TRACKNUMBER=%tracknr%" -T "GENRE=%genre%" -T "COMMENT=%comment%" -T "BAND=%albuminterpret%" -T "COMPOSER=%composer%" %haslyrics%--tag-from-
TOC извлечённого CD
Трек | Старт | Длительность | Начальный сектор | Конечный сектор --------------------------------------------------------------------- 1 | 0:00.00 | 4:26.52 | 0 | 20001 2 | 4:26.52 | 4:35.05 | 20002 | 40631 3 | 9:01.57 | 4:41.23 | 40632 | 61729 4 | 13:43.05 | 6:11.40 | 61730 | 89594 5 | 19:54.45 | 4:24.57 | 89595 | 109451 6 | 24:19.27 | 3:40.25 | 109452 | 125976 7 | 27:59.52 | 5:34.43 | 125977 | 151069 8 | 33:34.20 | 5:20.25 | 151070 | 175094 9 | 38:54.45 | 4:10.37 | 175095 | 193881 10 | 43:05.07 | 4:22.40 | 193882 | 213571 11 | 47:27.47 | 4:49.58 | 213572 | 235304 12 | 52:17.30 | 5:06.00 | 235305 | 258254 13 | 57:23.30 | 4:49.27 | 258255 | 279956 14 | 62:12.57 | 5:18.73 | 279957 | 303879
Трек 1
Имя файла D:\FLAC\01 Everything Is Cool.wav
Длина предзазора 0:00:02.00
Пиковый уровень 97.5 % Скорость извлечения 4.5 X Качество трека 100.0 % CRC теста 21F7DCAE CRC копии 21F7DCAE Точное извлечение (достоверность 2) [A9F9BE10] (AR v2) Копирование... OK
Трек 2
Имя файла D:\FLAC\02 Spinnin'.wav
Длина предзазора 0:00:00.05
Пиковый уровень 85.9 % Скорость извлечения 5.0 X Качество трека 100.0 % CRC теста DF225033 CRC копии DF225033 Точное извлечение (достоверность 2) [BCD3E2FE] (AR v2) Копирование... OK
Трек 3
Имя файла D:\FLAC\03 A Little More Love.wav
Длина предзазора 0:00:00.12
Пиковый уровень 94.6 % Скорость извлечения 5.5 X Качество трека 100.0 % CRC теста 8D641CF4 CRC копии 8D641CF4 Точное извлечение (достоверность 3) [43BF5C6D] (AR v2) Копирование... OK
Трек 4
Имя файла D:\FLAC\04 The Best Of My Love.wav
Длина предзазора 0:00:00.15
Пиковый уровень 95.9 % Скорость извлечения 5.7 X Качество трека 99.9 % CRC теста 91E3FBF3 CRC копии 91E3FBF3 Точное извлечение (достоверность 3) [899C32A1] (AR v2) Копирование... OK
Трек 5
Имя файла D:\FLAC\05 Slippin' Away.wav
Длина предзазора 0:00:00.08
Пиковый уровень 92.0 % Скорость извлечения 6.4 X Качество трека 100.0 % CRC теста 3D4C91BC CRC копии 3D4C91BC Точное извлечение (достоверность 3) [7A8FEA53] (AR v2) Копирование... OK
Трек 6
Имя файла D:\FLAC\06 Give Me Your Love.wav
Длина предзазора 0:00:00.07
Пиковый уровень 88.6 % Скорость извлечения 6.5 X Качество трека 100.0 % CRC теста 8DA62371 CRC копии 8DA62371 Точное извлечение (достоверность 2) [E4148E01] (AR v2) Копирование... OK
Трек 7
Имя файла D:\FLAC\07 Heaven In Your Eyes.wav
Длина предзазора 0:00:00.02
Пиковый уровень 92.5 % Скорость извлечения 7.2 X Качество трека 100.0 % CRC теста 26562343 CRC копии 26562343 Точное извлечение (достоверность 3) [6CDD31D6] (AR v2) Копирование... OK
Трек 8
Имя файла D:\FLAC\08 Paradise.wav
Длина предзазора 0:00:00.10
Пиковый уровень 97.7 % Скорость извлечения 6.9 X Качество трека 99.9 % CRC теста 99A8BECF CRC копии 99A8BECF Точное извлечение (достоверность 3) [E8E9558A] (AR v2) Копирование... OK
Трек 9
Имя файла D:\FLAC\09 We've Got A Good Thing.wav
Длина предзазора 0:00:00.10
Пиковый уровень 81.2 % Скорость извлечения 7.6 X Качество трека 100.0 % CRC теста BDA1B4BE CRC копии BDA1B4BE Точное извлечение (достоверность 2) [5E498B78] (AR v2) Копирование... OK
Трек 10
Имя файла D:\FLAC\10 Goombay Time.wav
Длина предзазора 0:00:00.15
Пиковый уровень 92.2 % Скорость извлечения 7.9 X Качество трека 100.0 % CRC теста B413CACC CRC копии B413CACC Точное извлечение (достоверность 2) [28435E9E] (AR v2) Копирование... OK
Трек 11
Имя файла D:\FLAC\11 Spend The Night With Me.wav
Длина предзазора 0:00:00.05
Пиковый уровень 87.8 % Скорость извлечения 8.3 X Качество трека 100.0 % CRC теста 1779E5BD CRC копии 1779E5BD Точное извлечение (достоверность 2) [84162A7A] (AR v2) Копирование... OK
Трек 12
Имя файла D:\FLAC\12 In Another Life.wav
Длина предзазора 0:00:00.08
Пиковый уровень 90.0 % Скорость извлечения 8.6 X Качество трека 100.0 % CRC теста 1D0886B3 CRC копии 1D0886B3 Точное извлечение (достоверность 3) [93B75C99] (AR v2) Копирование... OK
Трек 13
Имя файла D:\FLAC\13 Girl Watching.wav
Длина предзазора 0:00:00.10
Пиковый уровень 91.0 % Скорость извлечения 8.8 X Качество трека 100.0 % CRC теста 7088CAF9 CRC копии 7088CAF9 Точное извлечение (достоверность 2) [07112342] (AR v2) Копирование... OK
Трек 14
Имя файла D:\FLAC\14 Groove City.wav
Длина предзазора 0:00:00.10
Пиковый уровень 87.0 % Скорость извлечения 9.1 X Качество трека 100.0 % CRC теста 1BBE4C1E CRC копии 1BBE4C1E Точное извлечение (достоверность 4) [253165D8] (AR v2) Копирование... OK
Все треки извлечены точно
Ошибок не произошло
Конец отчёта
#ИМЯ?
[CTDB TOCID: zVUzQmbhWrsn_DREkwNdkagbjbE-] foundSubmit result: zVUzQmbhWrsn_DREkwNdkagbjbE- has been confirmedTrack | CTDB Status 1 | (5/5) Accurately ripped 2 | (5/5) Accurately ripped 3 | (5/5) Accurately ripped 4 | (5/5) Accurately ripped 5 | (5/5) Accurately ripped 6 | (5/5) Accurately ripped 7 | (5/5) Accurately ripped 8 | (5/5) Accurately ripped 9 | (5/5) Accurately ripped 10 | (5/5) Accurately ripped 11 | (5/5) Accurately ripped 12 | (5/5) Accurately ripped 13 | (5/5) Accurately ripped 14 | (5/5) Accurately ripped
==== Контрольная сумма отчёта 7BD5BFAF753F74C49592F063D4883EBCC16770464A7CD9E0270C1CDE277416E1 ====

Содержание индексной карты (.CUE)

REM GENRE FunkREM DATE 1996REM DISCID CF0FD30EREM COMMENT "ExactAudioCopy v1.0b2"PERFORMER "T Connection"TITLE "Everything's Still Cool (Best Of)"FILE "01 Everything Is Cool.wav" WAVE  TRACK 01 AUDIO    TITLE "Everything Is Cool"    PERFORMER "T Connection"    INDEX 01 00:00:00  TRACK 02 AUDIO    TITLE "Spinnin'"    PERFORMER "T Connection"    INDEX 00 04:26:47FILE "02 Spinnin'.wav" WAVE    INDEX 01 00:00:00  TRACK 03 AUDIO    TITLE "A Little More Love"    PERFORMER "T Connection"    INDEX 00 04:34:68FILE "03 A Little More Love.wav" WAVE    INDEX 01 00:00:00  TRACK 04 AUDIO    TITLE "The Best Of My Love"    PERFORMER "T Connection"    INDEX 00 04:41:08FILE "04 The Best Of My Love.wav" WAVE    INDEX 01 00:00:00  TRACK 05 AUDIO    TITLE "Slippin' Away"    PERFORMER "T Connection"    INDEX 00 06:11:32FILE "05 Slippin' Away.wav" WAVE    INDEX 01 00:00:00  TRACK 06 AUDIO    TITLE "Give Me Your Love"    PERFORMER "T Connection"    INDEX 00 04:24:50FILE "06 Give Me Your Love.wav" WAVE    INDEX 01 00:00:00  TRACK 07 AUDIO    TITLE "Heaven In Your Eyes"    PERFORMER "T Connection"    INDEX 00 03:40:23FILE "07 Heaven In Your Eyes.wav" WAVE    INDEX 01 00:00:00  TRACK 08 AUDIO    TITLE "Paradise"    PERFORMER "T Connection"    INDEX 00 05:34:33FILE "08 Paradise.wav" WAVE    INDEX 01 00:00:00  TRACK 09 AUDIO    TITLE "We've Got A Good Thing"    PERFORMER "T Connection"    INDEX 00 05:20:15FILE "09 We've Got A Good Thing.wav" WAVE    INDEX 01 00:00:00  TRACK 10 AUDIO    TITLE "Goombay Time"    PERFORMER "T Connection"    INDEX 00 04:10:22FILE "10 Goombay Time.wav" WAVE    INDEX 01 00:00:00  TRACK 11 AUDIO    TITLE "Spend The Night With Me"    PERFORMER "T Connection"    INDEX 00 04:22:35FILE "11 Spend The Night With Me.wav" WAVE    INDEX 01 00:00:00  TRACK 12 AUDIO    TITLE "In Another Life"    PERFORMER "T Connection"    INDEX 00 04:49:50FILE "12 In Another Life.wav" WAVE    INDEX 01 00:00:00  TRACK 13 AUDIO    TITLE "Girl Watching"    PERFORMER "T Connection"    INDEX 00 05:05:65FILE "13 Girl Watching.wav" WAVE    INDEX 01 00:00:00  TRACK 14 AUDIO    TITLE "Groove City"    PERFORMER "T Connection"    INDEX 00 04:49:17FILE "14 Groove City.wav" WAVE    INDEX 01 00:00:00

If you like the topic, please click share to help develop our site.

To download the file disable ad blocking, and reload the page.

disable adblock How to disable ad blocking?

Download by magnet link 1.69 GB Download Torrent

Login using:

Similar topics



   
Current time is: 25-Jun 10:49 :: All times are UTC + 3