- Eric Seva - Nomade Sonore (2015) Gaya Music Production - Жанр: Post-Bop, Contemporary Jazz
Издание: Gaya Music Production - ESGCD001
Продолжительность: 00:59:33
Кодек: FLAC (tracks+.cue)
Битрейт: Lossless
Источник (релизер): dtromp
Страна-производитель диска: France
Наличие сканов в содержимом раздачи: да
Треклист:
01. Graffiti Celtique [8:23]
02. Guizeh [5:16]
03. Rue aux Fromages [3:46]
04. Nomade Sonore [10:22]
05. Monsieur Toulouse [6:31]
06. Pipa [5:57]
07. Kamar [4:39]
08. Matin Rouge [5:50]
09. Sur le Pont de Gazagou [4:07]
10. Cheekey Monkey [4:42]

Состав

Eric Seva - baritone saxophone, soprano saxophone
Bruno Schorp - bass
Daniel Zimmermann - trombone
Pierre-Francois Dufour - drums

Отчёт EAC:

Exact Audio Copy V1.3 from 2. September 2016
EAC extraction logfile from 14. March 2017, 9:21
Eric Seva / Nomade Sonore
Used drive : ATAPI iHBS112 2 Adapter: 1 ID: 1
Read mode : Secure
Utilize accurate stream : Yes
Defeat audio cache : Yes
Make use of C2 pointers : No
Read offset correction : 6
Overread into Lead-In and Lead-Out : No
Fill up missing offset samples with silence : Yes
Delete leading and trailing silent blocks : No
Null samples used in CRC calculations : Yes
Used interface : Native Win32 interface for Win NT & 2000
Gap handling : Appended to previous track
Used output format : User Defined Encoder
Selected bitrate : 128 kBit/s
Quality : High
Add ID3 tag : No
Command line compressor : C:\Program Files (x86)\Exact Audio Copy\Flac\flac.exe
Additional command line options : -8 -V -T "ARTIST=%artist%" -T "TITLE=%title%" -T "ALBUM=%albumtitle%" -T "DATE=%year%" -T "TRACKNUMBER=%tracknr%" -T "GENRE=%genre%" -T "PERFORMER=%albuminterpret%" -T "COMPOSER=%composer%" -T "ALBUMARTIST=%albumartist%" -T "DISCNUMBER=%cdnumber%" -T "TOTALDISCS=%totalcds%" -T "TOTALTRACKS=%numtracks%" -T "COMMENT=EAC Secure Mode, Test & Copy, AccurateRip, FLAC -8" %source% -o %dest%
TOC of the extracted CD
Track | Start | Length | Start sector | End sector
---------------------------------------------------------
1 | 0:00.00 | 8:23.15 | 0 | 37739
2 | 8:23.15 | 5:15.49 | 37740 | 61413
3 | 13:38.64 | 3:46.15 | 61414 | 78378
4 | 17:25.04 | 10:21.61 | 78379 | 125014
5 | 27:46.65 | 6:31.07 | 125015 | 154346
6 | 34:17.72 | 5:57.14 | 154347 | 181135
7 | 40:15.11 | 4:38.62 | 181136 | 202047
8 | 44:53.73 | 5:50.16 | 202048 | 228313
9 | 50:44.14 | 4:07.06 | 228314 | 246844
10 | 54:51.20 | 4:42.10 | 246845 | 268004
Track 1
Filename G:\DL\Eric Seva - Nomade Sonore (2015) [FLAC]\01 - Graffiti Celtique.wav
Pre-gap length 0:00:02.00
Peak level 98.5 %
Extraction speed 5.8 X
Track quality 100.0 %
Test CRC B2B2335E
Copy CRC B2B2335E
Accurately ripped (confidence 2) [F65ED7A6] (AR v2)
Copy OK
Track 2
Filename G:\DL\Eric Seva - Nomade Sonore (2015) [FLAC]\02 - Guizeh.wav
Peak level 93.1 %
Extraction speed 6.7 X
Track quality 100.0 %
Test CRC 42BABA49
Copy CRC 42BABA49
Accurately ripped (confidence 2) [0F82FE81] (AR v2)
Copy OK
Track 3
Filename G:\DL\Eric Seva - Nomade Sonore (2015) [FLAC]\03 - Rue aux Fromages.wav
Peak level 93.4 %
Extraction speed 6.9 X
Track quality 100.0 %
Test CRC 7ABCC39E
Copy CRC 7ABCC39E
Accurately ripped (confidence 2) [C91FF003] (AR v2)
Copy OK
Track 4
Filename G:\DL\Eric Seva - Nomade Sonore (2015) [FLAC]\04 - Nomade Sonore.wav
Peak level 94.3 %
Extraction speed 7.7 X
Track quality 99.9 %
Test CRC EB7E62B8
Copy CRC EB7E62B8
Accurately ripped (confidence 2) [07605488] (AR v2)
Copy OK
Track 5
Filename G:\DL\Eric Seva - Nomade Sonore (2015) [FLAC]\05 - Monsieur Toulouse.wav
Peak level 94.0 %
Extraction speed 7.9 X
Track quality 99.9 %
Test CRC 2DE29177
Copy CRC 2DE29177
Accurately ripped (confidence 2) [EF5EED2A] (AR v2)
Copy OK
Track 6
Filename G:\DL\Eric Seva - Nomade Sonore (2015) [FLAC]\06 - Pipa.wav
Peak level 93.1 %
Extraction speed 9.3 X
Track quality 100.0 %
Test CRC E8D142C7
Copy CRC E8D142C7
Accurately ripped (confidence 2) [57DE1C98] (AR v2)
Copy OK
Track 7
Filename G:\DL\Eric Seva - Nomade Sonore (2015) [FLAC]\07 - Kamar.wav
Peak level 94.1 %
Extraction speed 9.5 X
Track quality 100.0 %
Test CRC 6BA00696
Copy CRC 6BA00696
Accurately ripped (confidence 2) [F463A765] (AR v2)
Copy OK
Track 8
Filename G:\DL\Eric Seva - Nomade Sonore (2015) [FLAC]\08 - Matin Rouge.wav
Peak level 94.3 %
Extraction speed 10.1 X
Track quality 100.0 %
Test CRC C64C9746
Copy CRC C64C9746
Accurately ripped (confidence 2) [E481B037] (AR v2)
Copy OK
Track 9
Filename G:\DL\Eric Seva - Nomade Sonore (2015) [FLAC]\09 - Sur le Pont de Gazagou.wav
Peak level 94.4 %
Extraction speed 10.0 X
Track quality 100.0 %
Test CRC 614B320A
Copy CRC 614B320A
Accurately ripped (confidence 2) [98F72CB6] (AR v2)
Copy OK
Track 10
Filename G:\DL\Eric Seva - Nomade Sonore (2015) [FLAC]\10 - Cheekey Monkey.wav
Peak level 94.5 %
Extraction speed 5.6 X
Track quality 99.8 %
Test CRC 7B6DC463
Copy CRC 7B6DC463
Accurately ripped (confidence 2) [72900F3D] (AR v2)
Copy OK
All tracks accurately ripped
No errors occurred
End of status report
---- CUETools DB Plugin V2.1.6
[CTDB TOCID: gixN7xjyRubqlwapGfA5jL84IeA-] found
Submit result: gixN7xjyRubqlwapGfA5jL84IeA- has been confirmed
Track | CTDB Status
1 | (5/5) Accurately ripped
2 | (5/5) Accurately ripped
3 | (5/5) Accurately ripped
4 | (5/5) Accurately ripped
5 | (5/5) Accurately ripped
6 | (5/5) Accurately ripped
7 | (5/5) Accurately ripped
8 | (5/5) Accurately ripped
9 | (5/5) Accurately ripped
10 | (5/5) Accurately ripped
==== Log checksum 43026243AF346684312C4EE7C397BDD19CD11A998EE99B64E35575523AC51D2F ====
Время раздачи: c 15:00 до 22:00 (до появления первых 3-5 скачавших)-

Поглощение/вытеснение
Только с согласия релизера

Beijing65

If you like the topic, please click share to help develop our site.

To download the file disable ad blocking, and reload the page.

disable adblock How to disable ad blocking?

Download by magnet link 356 MB Download Torrent

Login using:

Similar topics

Eric Seva - Nomade Sonore (2015) MP3
 137 MB   0 | 0   09-May-19 00:30   3


   
Current time is: 25-Jun 10:42 :: All times are UTC + 3