Nubiyan Twist - Jungle Run- Жанр: World Fusion, Soul, Funk, Disco, Groove
Носитель: CD
Год издания: 2019
Издатель (лейбл): Strut
Номер по каталогу: STRUT198D
Аудиокодек: FLAC (*.flac)
Тип рипа: tracks+.cue
Продолжительность: 00:55:29
Источник: www
Наличие сканов в содержимом раздачи: да
--01. Tell It To Me Slowly Feat. Nick Richards (05:17)
02. Jungle Run Feat. Nubiya Brandon (05:16)
03. Basa Basa Feat. K.O.G (06:01)
04. Brother Feat. Nubiya Brandon (05:11)
05. Addis To London Feat. Mulatu Astatke (06:28)
06. Borders Feat. Pilo Adami (05:57)
07. Permission Feat. Nubiya Brandon (04:20)
08. Ghosts Feat. Nick Richards (07:23)
09. They Talk Feat. K.O.G. (05:10)
10. Sugar Cane Feat. Nubiya Brandon (04:22)--

Лог создания рипа

Exact Audio Copy V1.3 from 2. September 2016
EAC extraction logfile from 11. April 2019, 19:08
Nubiyan Twist / Jungle Run
Used drive : ATAPI iHBS112 2 Adapter: 1 ID: 1
Read mode : SecureUtilize accurate stream : YesDefeat audio cache : YesMake use of C2 pointers : No
Read offset correction : 6Overread into Lead-In and Lead-Out : NoFill up missing offset samples with silence : YesDelete leading and trailing silent blocks : NoNull samples used in CRC calculations : YesUsed interface : Native Win32 interface for Win NT & 2000Gap handling : Appended to previous track
Used output format : User Defined EncoderSelected bitrate : 768 kBit/sQuality : HighAdd ID3 tag : NoCommand line compressor : C:\Program Files (x86)\Exact Audio Copy\Flac\flac.exeAdditional command line options : -8 -V -T "ARTIST=%artist%" -T "TITLE=%title%" -T "ALBUM=%albumtitle%" -T "DATE=%year%" -T "TRACKNUMBER=%tracknr%" -T "GENRE=%genre%" -T "PERFORMER=%albuminterpret%" -T "COMPOSER=%composer%" -T "ALBUMARTIST=%albumartist%" -T "DISCNUMBER=%cdnumber%" -T "TOTALDISCS=%totalcds%" -T "TOTALTRACKS=%numtracks%" -T "COMMENT=EAC Secure Mode, Test & Copy, AccurateRip, FLAC -8" %source% -o %dest%
TOC of the extracted CD
Track | Start | Length | Start sector | End sector --------------------------------------------------------- 1 | 0:00.00 | 5:17.57 | 0 | 23831 2 | 5:17.57 | 5:16.41 | 23832 | 47572 3 | 10:34.23 | 6:01.49 | 47573 | 74696 4 | 16:35.72 | 5:11.07 | 74697 | 98028 5 | 21:47.04 | 6:28.06 | 98029 | 127134 6 | 28:15.10 | 5:57.17 | 127135 | 153926 7 | 34:12.27 | 4:20.70 | 153927 | 173496 8 | 38:33.22 | 7:23.55 | 173497 | 206776 9 | 45:57.02 | 5:10.07 | 206777 | 230033 10 | 51:07.09 | 4:22.59 | 230034 | 249742
Track 1
Filename G:\DL\Nubiyan Twist - Jungle Run (2019) [FLAC]\01 - Tell It To Me Slowly Feat. Nick Richards.wav
Pre-gap length 0:00:02.00
Peak level 97.7 % Extraction speed 2.0 X Track quality 100.0 % Test CRC AA4C2C58 Copy CRC AA4C2C58 Track not present in AccurateRip database Copy OK
Track 2
Filename G:\DL\Nubiyan Twist - Jungle Run (2019) [FLAC]\02 - Jungle Run Feat. Nubiya Brandon.wav
Pre-gap length 0:00:01.58
Peak level 100.0 % Extraction speed 2.3 X Track quality 100.0 % Test CRC 437DD2D3 Copy CRC 437DD2D3 Track not present in AccurateRip database Copy OK
Track 3
Filename G:\DL\Nubiyan Twist - Jungle Run (2019) [FLAC]\03 - Basa Basa Feat. K.O.G.wav
Pre-gap length 0:00:01.58
Peak level 97.7 % Extraction speed 2.6 X Track quality 100.0 % Test CRC FCC38457 Copy CRC FCC38457 Track not present in AccurateRip database Copy OK
Track 4
Filename G:\DL\Nubiyan Twist - Jungle Run (2019) [FLAC]\04 - Brother Feat. Nubiya Brandon.wav
Pre-gap length 0:00:01.58
Peak level 97.5 % Extraction speed 2.2 X Track quality 99.9 % Test CRC 4AA739D3 Copy CRC 4AA739D3 Track not present in AccurateRip database Copy OK
Track 5
Filename G:\DL\Nubiyan Twist - Jungle Run (2019) [FLAC]\05 - Addis To London Feat. Mulatu Astatke.wav
Pre-gap length 0:00:01.58
Peak level 100.0 % Extraction speed 2.6 X Track quality 99.9 % Test CRC 4D6133D9 Copy CRC 4D6133D9 Track not present in AccurateRip database Copy OK
Track 6
Filename G:\DL\Nubiyan Twist - Jungle Run (2019) [FLAC]\06 - Borders Feat. Pilo Adami.wav
Pre-gap length 0:00:01.58
Peak level 98.3 % Extraction speed 2.7 X Track quality 99.9 % Test CRC D0230426 Copy CRC D0230426 Track not present in AccurateRip database Copy OK
Track 7
Filename G:\DL\Nubiyan Twist - Jungle Run (2019) [FLAC]\07 - Permission Feat. Nubiya Brandon.wav
Pre-gap length 0:00:01.58
Peak level 99.3 % Extraction speed 2.6 X Track quality 99.9 % Test CRC 898ACCB4 Copy CRC 898ACCB4 Track not present in AccurateRip database Copy OK
Track 8
Filename G:\DL\Nubiyan Twist - Jungle Run (2019) [FLAC]\08 - Ghosts Feat. Nick Richards.wav
Pre-gap length 0:00:01.58
Peak level 98.1 % Extraction speed 3.8 X Track quality 100.0 % Test CRC E8499B28 Copy CRC E8499B28 Track not present in AccurateRip database Copy OK
Track 9
Filename G:\DL\Nubiyan Twist - Jungle Run (2019) [FLAC]\09 - They Talk Feat. K.O.G..wav
Pre-gap length 0:00:01.58
Peak level 98.0 % Extraction speed 3.0 X Track quality 99.9 % Test CRC FD774E77 Copy CRC FD774E77 Track not present in AccurateRip database Copy OK
Track 10
Filename G:\DL\Nubiyan Twist - Jungle Run (2019) [FLAC]\10 - Sugar Cane Feat. Nubiya Brandon.wav
Pre-gap length 0:00:01.58
Peak level 99.7 % Extraction speed 3.9 X Track quality 100.0 % Test CRC 5A7711A2 Copy CRC 5A7711A2 Track not present in AccurateRip database Copy OK
None of the tracks are present in the AccurateRip database
No errors occurred
End of status report
---- CUETools DB Plugin V2.1.6
[CTDB TOCID: 5BBkvCl7buW.0etnv_gkprE7YgA-] foundSubmit result: 5BBkvCl7buW.0etnv_gkprE7YgA- has been confirmedTrack | CTDB Status 1 | (3/3) Accurately ripped 2 | (3/3) Accurately ripped 3 | (3/3) Accurately ripped 4 | (3/3) Accurately ripped 5 | (3/3) Accurately ripped 6 | (3/3) Accurately ripped 7 | (3/3) Accurately ripped 8 | (3/3) Accurately ripped 9 | (3/3) Accurately ripped 10 | (3/3) Accurately ripped
==== Log checksum D77CDE57875633A8147DC43CD282D75AD62AE08880558D935BF97D15894D1D66 ====

Содержание индексной карты (.CUE)

REM GENRE JazzREM DATE 2019REM DISCID 9A0D010AREM COMMENT "ExactAudioCopy v1.3"PERFORMER "Nubiyan Twist"TITLE "Jungle Run"REM COMPOSER ""FILE "01 - Tell It To Me Slowly Feat. Nick Richards.wav" WAVE  TRACK 01 AUDIO    TITLE "Tell It To Me Slowly Feat. Nick Richards"    PERFORMER "Nubiyan Twist"    REM COMPOSER ""    INDEX 01 00:00:00  TRACK 02 AUDIO    TITLE "Jungle Run Feat. Nubiya Brandon"    PERFORMER "Nubiyan Twist"    REM COMPOSER ""    INDEX 00 05:15:74FILE "02 - Jungle Run Feat. Nubiya Brandon.wav" WAVE    INDEX 01 00:00:00  TRACK 03 AUDIO    TITLE "Basa Basa Feat. K.O.G"    PERFORMER "Nubiyan Twist"    REM COMPOSER ""    INDEX 00 05:14:58FILE "03 - Basa Basa Feat. K.O.G.wav" WAVE    INDEX 01 00:00:00  TRACK 04 AUDIO    TITLE "Brother Feat. Nubiya Brandon"    PERFORMER "Nubiyan Twist"    REM COMPOSER ""    INDEX 00 05:59:66FILE "04 - Brother Feat. Nubiya Brandon.wav" WAVE    INDEX 01 00:00:00  TRACK 05 AUDIO    TITLE "Addis To London Feat. Mulatu Astatke"    PERFORMER "Nubiyan Twist"    REM COMPOSER ""    INDEX 00 05:09:24FILE "05 - Addis To London Feat. Mulatu Astatke.wav" WAVE    INDEX 01 00:00:00  TRACK 06 AUDIO    TITLE "Borders Feat. Pilo Adami"    PERFORMER "Nubiyan Twist"    REM COMPOSER ""    INDEX 00 06:26:23FILE "06 - Borders Feat. Pilo Adami.wav" WAVE    INDEX 01 00:00:00  TRACK 07 AUDIO    TITLE "Permission Feat. Nubiya Brandon"    PERFORMER "Nubiyan Twist"    REM COMPOSER ""    INDEX 00 05:55:34FILE "07 - Permission Feat. Nubiya Brandon.wav" WAVE    INDEX 01 00:00:00  TRACK 08 AUDIO    TITLE "Ghosts Feat. Nick Richards"    PERFORMER "Nubiyan Twist"    REM COMPOSER ""    INDEX 00 04:19:12FILE "08 - Ghosts Feat. Nick Richards.wav" WAVE    INDEX 01 00:00:00  TRACK 09 AUDIO    TITLE "They Talk Feat. K.O.G."    PERFORMER "Nubiyan Twist"    REM COMPOSER ""    INDEX 00 07:21:72FILE "09 - They Talk Feat. K.O.G..wav" WAVE    INDEX 01 00:00:00  TRACK 10 AUDIO    TITLE "Sugar Cane Feat. Nubiya Brandon"    PERFORMER "Nubiyan Twist"    REM COMPOSER ""    INDEX 00 05:08:24FILE "10 - Sugar Cane Feat. Nubiya Brandon.wav" WAVE    INDEX 01 00:00:00

If you like the topic, please click share to help develop our site.

To download the file disable ad blocking, and reload the page.

disable adblock How to disable ad blocking?

Download by magnet link 407 MB Download Torrent

Login using:

Similar topics

(World Fusion | Soul | Pop) Gugu Shezi - Umoya - 2017, MP3, 320 kbps
 102 MB   0 | 0   18-Jul-18 22:15   0


   
Current time is: 25-Jun 11:20 :: All times are UTC + 3