Enter Twilight / The Inner Verse- Жанр: Symphonic Progressive Gothic Metal
Носитель: CD
Страна-производитель диска (релиза): Australia
Год издания: 2005
Издатель (лейбл): Riot! Entertainment
Номер по каталогу: RIOT005CD
Страна исполнителя (группы): Australia
Аудиокодек: FLAC (*.flac)
Тип рипа: image+.cue
Продолжительность: 00:53:51
Источник: BACKLASH (спасибо)
Наличие сканов в содержимом раздачи: да
Треклист:
01. Secrets (8:27)
02. Nectar Of Fantasy (4:47)
03. Angelic Sacrifice (8:31)
04. Eternal (7:22)
05. Memories (10:16)
06. Soul Tears (7:10)
07. In This Final Hour (7:13)

Лог создания рипа

Exact Audio Copy V1.3 from 2. September 2016
EAC extraction logfile from 29. March 2019, 17:22
Enter Twilight / The Inner Verse
Used drive : HL-DT-STDVDRAM GH24NSD1 Adapter: 1 ID: 0
Read mode : SecureUtilize accurate stream : YesDefeat audio cache : YesMake use of C2 pointers : No
Read offset correction : 6Overread into Lead-In and Lead-Out : NoFill up missing offset samples with silence : YesDelete leading and trailing silent blocks : NoNull samples used in CRC calculations : YesUsed interface : Native Win32 interface for Win NT & 2000
Used output format : User Defined EncoderSelected bitrate : 896 kBit/sQuality : HighAdd ID3 tag : NoCommand line compressor : C:\Program Files (x86)\Exact Audio Copy\Flac\flac.exeAdditional command line options : -6 -V %source%
TOC of the extracted CD
Track | Start | Length | Start sector | End sector --------------------------------------------------------- 1 | 0:00.00 | 8:27.36 | 0 | 38060 2 | 8:27.36 | 4:48.09 | 38061 | 59669 3 | 13:15.45 | 8:31.56 | 59670 | 98050 4 | 21:47.26 | 7:22.17 | 98051 | 131217 5 | 29:09.43 | 10:16.59 | 131218 | 177476 6 | 39:26.27 | 7:10.15 | 177477 | 209741 7 | 46:36.42 | 7:14.00 | 209742 | 242291
Range status and errors
Selected range
Filename C:\Users\User\Music\EAC\Enter Twilight - The Inner Verse\Enter Twilight - The Inner Verse.wav
Peak level 100.0 % Extraction speed 7.5 X Range quality 100.0 % Test CRC 6D40E0CE Copy CRC 6D40E0CE Copy OK
No errors occurred
AccurateRip summary
Track 1 accurately ripped (confidence 1) [8D463619] (AR v2)Track 2 accurately ripped (confidence 1) [30227C58] (AR v2)Track 3 accurately ripped (confidence 1) [5A334AB3] (AR v2)Track 4 accurately ripped (confidence 1) [B7021CCF] (AR v2)Track 5 accurately ripped (confidence 1) [FB1E6B7C] (AR v2)Track 6 accurately ripped (confidence 1) [000B1C82] (AR v2)Track 7 accurately ripped (confidence 1) [5599B52F] (AR v2)
All tracks accurately ripped
End of status report
---- CUETools DB Plugin V2.1.6
[CTDB TOCID: cFMIJ13Qu8kqMiNCGVDGZHgQ6ns-] foundSubmit result: cFMIJ13Qu8kqMiNCGVDGZHgQ6ns- has been confirmedTrack | CTDB Status 1 | (2/2) Accurately ripped 2 | (2/2) Accurately ripped 3 | (2/2) Accurately ripped 4 | (2/2) Accurately ripped 5 | (2/2) Accurately ripped 6 | (2/2) Accurately ripped 7 | (2/2) Accurately ripped
==== Log checksum D601B5D640A55C4B83EA947354EA4A3616696D3541B020C29A979CC250B5A9A6 ====

If you like the topic, please click share to help develop our site.

To download the file disable ad blocking, and reload the page.

disable adblock How to disable ad blocking?

Download by magnet link 427 MB Download Torrent

Login using:

Similar topics



   
Current time is: 25-Jun 10:26 :: All times are UTC + 3