- Jennifer Wharton - Bonegasm (2019) Sunnyside Communications - Жанр: Mainstream Jazz
Издание: Sunnyside Communications - SSC1530
Продолжительность: 00:59:43
Кодек: FLAC (tracks+.cue)
Битрейт: Lossless
Источник (релизер): _GARRI
Наличие сканов в содержимом раздачи: нет
Треклист:
01. The Year of Two Summers [7:48]
02. Low Ball [7:46]
03. Stellar [4:55]
04. North Rampart [6:30]
05. Softly As in a Morning Sunrise [9:42]
06. Other Angles [7:43]
07. Tricotism [5:27]
08. Impromptu [6:21]
09. Big Long Slidin' Thing [3:30]

Состав

John Fedchock - trombone
Michael Eckroth - piano
Nate Mayland - trombone
Evan Gregor - bass
Alan Ferber - trombone
Don Peretz - drums
Jennifer Wharton - bass - trombone
Mauricio Herrera - percussion

Отчёт EAC:

Exact Audio Copy V1.1 from 23. June 2015
EAC extraction logfile from 7. May 2019, 18:49
Jennifer Wharton / Bonegasm
Used drive : HL-DT-STDVDRAM GP50NB40 Adapter: 1 ID: 1
Read mode : Secure
Utilize accurate stream : Yes
Defeat audio cache : Yes
Make use of C2 pointers : No
Read offset correction : 6
Overread into Lead-In and Lead-Out : No
Fill up missing offset samples with silence : Yes
Delete leading and trailing silent blocks : No
Null samples used in CRC calculations : Yes
Used interface : Native Win32 interface for Win NT & 2000
Gap handling : Appended to previous track
Used output format : User Defined Encoder
Selected bitrate : 896 kBit/s
Quality : High
Add ID3 tag : No
Command line compressor : C:\Program Files (x86)\Exact Audio Copy\Flac\flac.exe
Additional command line options : -8 -V -T "ARTIST=%artist%" -T "TITLE=%title%" -T "ALBUM=%albumtitle%" -T "DATE=%year%" -T "TRACKNUMBER=%tracknr%" -T "GENRE=%genre%" -T "PERFORMER=%albuminterpret%" -T "COMPOSER=%composer%" %haslyrics%--tag-from-file=LYRICS="%lyricsfile%"%haslyrics% -T "ALBUMARTIST=%albumartist%" -T "DISCNUMBER=%cdnumber%" -T "TOTALDISCS=%totalcds%" -T "TOTALTRACKS=%numtracks%" -T "COMMENT=%comment%" %source% -o %dest%
TOC of the extracted CD
Track | Start | Length | Start sector | End sector
---------------------------------------------------------
1 | 0:00.00 | 7:48.24 | 0 | 35123
2 | 7:48.24 | 7:45.70 | 35124 | 70068
3 | 15:34.19 | 4:55.19 | 70069 | 92212
4 | 20:29.38 | 6:30.30 | 92213 | 121492
5 | 26:59.68 | 9:42.06 | 121493 | 165148
6 | 36:41.74 | 7:43.37 | 165149 | 199910
7 | 44:25.36 | 5:26.60 | 199911 | 224420
8 | 49:52.21 | 6:21.06 | 224421 | 253001
9 | 56:13.27 | 3:29.39 | 253002 | 268715
Track 1
Filename C:\EAC Rips\Jennifer Wharton - Bonegasm (2019) [FLAC]\01 - The Year of Two Summers.wav
Pre-gap length 0:00:02.00
Peak level 87.9 %
Extraction speed 1.1 X
Track quality 99.9 %
Test CRC BF307FF6
Copy CRC BF307FF6
Track not present in AccurateRip database
Copy OK
Track 2
Filename C:\EAC Rips\Jennifer Wharton - Bonegasm (2019) [FLAC]\02 - Low Ball.wav
Pre-gap length 0:00:00.74
Peak level 83.2 %
Extraction speed 1.4 X
Track quality 99.9 %
Test CRC BCD1BD92
Copy CRC BCD1BD92
Track not present in AccurateRip database
Copy OK
Track 3
Filename C:\EAC Rips\Jennifer Wharton - Bonegasm (2019) [FLAC]\03 - Stellar.wav
Pre-gap length 0:00:02.22
Peak level 83.1 %
Extraction speed 1.6 X
Track quality 100.0 %
Test CRC 713A5C4D
Copy CRC 713A5C4D
Track not present in AccurateRip database
Copy OK
Track 4
Filename C:\EAC Rips\Jennifer Wharton - Bonegasm (2019) [FLAC]\04 - North Rampart.wav
Pre-gap length 0:00:02.97
Peak level 87.4 %
Extraction speed 1.6 X
Track quality 99.9 %
Test CRC 5B882DC4
Copy CRC 5B882DC4
Track not present in AccurateRip database
Copy OK
Track 5
Filename C:\EAC Rips\Jennifer Wharton - Bonegasm (2019) [FLAC]\05 - Softly As in a Morning Sunrise.wav
Pre-gap length 0:00:01.05
Peak level 88.2 %
Extraction speed 2.0 X
Track quality 100.0 %
Test CRC 2C7A4B1B
Copy CRC 2C7A4B1B
Track not present in AccurateRip database
Copy OK
Track 6
Filename C:\EAC Rips\Jennifer Wharton - Bonegasm (2019) [FLAC]\06 - Other Angles.wav
Pre-gap length 0:00:02.92
Peak level 87.6 %
Extraction speed 2.0 X
Track quality 99.9 %
Test CRC 2916D7F6
Copy CRC 2916D7F6
Track not present in AccurateRip database
Copy OK
Track 7
Filename C:\EAC Rips\Jennifer Wharton - Bonegasm (2019) [FLAC]\07 - Tricotism.wav
Pre-gap length 0:00:01.42
Peak level 88.0 %
Extraction speed 2.2 X
Track quality 100.0 %
Test CRC B6CB2C0E
Copy CRC B6CB2C0E
Track not present in AccurateRip database
Copy OK
Track 8
Filename C:\EAC Rips\Jennifer Wharton - Bonegasm (2019) [FLAC]\08 - Impromptu.wav
Pre-gap length 0:00:02.53
Peak level 87.9 %
Extraction speed 0.6 X
Track quality 99.3 %
Test CRC 6F310A7B
Copy CRC 6F310A7B
Track not present in AccurateRip database
Copy OK
Track 9
Filename C:\EAC Rips\Jennifer Wharton - Bonegasm (2019) [FLAC]\09 - Big Long Slidin' Thing.wav
Pre-gap length 0:00:02.42
Peak level 87.2 %
Extraction speed 0.2 X
Track quality 98.5 %
Test CRC 1E5DE07A
Copy CRC 1E5DE07A
Track not present in AccurateRip database
Copy OK
None of the tracks are present in the AccurateRip database
No errors occurred
End of status report
---- CUETools DB Plugin V2.1.6
[CTDB TOCID: N.aze4l2MLHVHNELeknpOjdkI2c-] found
Submit result: N.aze4l2MLHVHNELeknpOjdkI2c- has been confirmed
Track | CTDB Status
1 | (1/1) Accurately ripped
2 | (1/1) Accurately ripped
3 | (1/1) Accurately ripped
4 | (1/1) Accurately ripped
5 | (1/1) Accurately ripped
6 | (1/1) Accurately ripped
7 | (1/1) Accurately ripped
8 | (1/1) Accurately ripped
9 | (1/1) Accurately ripped
==== Log checksum CE38F371488E02BD074031A5EE26164227FA3C16F1B1566ED940D886725BE0F8 ====
Время раздачи: c 15:00 до 22:00 (до появления первых 3-5 скачавших)-

Поглощение/вытеснение
Только с согласия релизера

Beijing65

If you like the topic, please click share to help develop our site.

To download the file disable ad blocking, and reload the page.

disable adblock How to disable ad blocking?

Download by magnet link 345 MB Download Torrent

Login using:

Similar topics



   
Current time is: 25-Jun 10:50 :: All times are UTC + 3