Sadauk

A New Dawn




• Жанр: Symphonic Gothic Metal
• Носитель: CD
• Год издания: 2017
• Издатель: Pure Legend Rec.
• Номер по каталогу: PLRCD0024
• Страна: Sweden
• Аудиокодек: FLAC (*.flac)
• Тип рипа: image+.cue
• Продолжительность: 00:59:19
• Источник: Ilijan
• Наличие сканов: да

01. Overture - Ancient Lithdor {00:02:44}
02. Act 1 - Melhinis Death {00:05:38}
03. Act 2 - Cursed Land {00:05:48}
04. Act 3 - Battle A God {00:05:41}
05. Epitaph - Funeral Among Roses {00:01:59}
06. Posterity - Eleannas Prophecy {00:03:46}
07. Vikingagillets Kvade {00:01:03}
08. Sailing Away {00:04:51}
09. As They Sleep Behind The Horizon {00:07:37}
10. Tears Of The Sun {00:03:16}
11. Who Is King In Paradise {00:05:34}
12. Hourglass {00:04:20}
13. Sage And Jester {00:06:56}
-

• Содержание индексной карты •

REM GENRE "Power/Symphonic Metal"REM DATE 2017REM DISCID B50DEE0DREM COMMENT "ExactAudioCopy v1.3"PERFORMER "Sadauk"TITLE "A New Dawn"FILE "Sadauk - A New Dawn.flac" WAVE  TRACK 01 AUDIO    TITLE "Overture - Ancient Lithdor"    PERFORMER "Sadauk"    FLAGS DCP    INDEX 01 00:00:00  TRACK 02 AUDIO    TITLE "Act 1 - Melhinis Death"    PERFORMER "Sadauk"    FLAGS DCP    INDEX 01 02:44:12  TRACK 03 AUDIO    TITLE "Act 2 - Cursed Land"    PERFORMER "Sadauk"    FLAGS DCP    INDEX 01 08:22:48  TRACK 04 AUDIO    TITLE "Act 3 - Battle A God"    PERFORMER "Sadauk"    FLAGS DCP    INDEX 00 14:11:14    INDEX 01 14:11:65  TRACK 05 AUDIO    TITLE "Epitaph - Funeral Among Roses"    PERFORMER "Sadauk"    FLAGS DCP    INDEX 01 19:53:49  TRACK 06 AUDIO    TITLE "Posterity - Eleannas Prophecy"    PERFORMER "Sadauk"    FLAGS DCP    INDEX 01 21:53:10  TRACK 07 AUDIO    TITLE "Vikingagillets Kvade"    PERFORMER "Sadauk"    FLAGS DCP    INDEX 00 25:39:67    INDEX 01 25:41:20  TRACK 08 AUDIO    TITLE "Sailing Away"    PERFORMER "Sadauk"    FLAGS DCP    INDEX 01 26:44:20  TRACK 09 AUDIO    TITLE "As They Sleep Behind The Horizon"    PERFORMER "Sadauk"    FLAGS DCP    INDEX 00 31:35:43    INDEX 01 31:37:13  TRACK 10 AUDIO    TITLE "Tears Of The Sun"    PERFORMER "Sadauk"    FLAGS DCP    INDEX 00 39:14:49    INDEX 01 39:15:60  TRACK 11 AUDIO    TITLE "Who Is King In Paradise"    PERFORMER "Sadauk"    FLAGS DCP    INDEX 00 42:32:01    INDEX 01 42:32:39  TRACK 12 AUDIO    TITLE "Hourglass"    PERFORMER "Sadauk"    FLAGS DCP    INDEX 00 48:07:28    INDEX 01 48:08:23  TRACK 13 AUDIO    TITLE "Sage And Jester"    PERFORMER "Sadauk"    FLAGS DCP    INDEX 00 52:28:73    INDEX 01 52:29:32
-

• Лог создания рипа •

Exact Audio Copy V1.3 from 2. September 2016
EAC extraction logfile from 16. February 2018, 9:56
Sadauk / A New Dawn
Used drive : ATAPI iHAS122 W Adapter: 2 ID: 0
Read mode : SecureUtilize accurate stream : YesDefeat audio cache : YesMake use of C2 pointers : No
Read offset correction : 48Overread into Lead-In and Lead-Out : NoFill up missing offset samples with silence : YesDelete leading and trailing silent blocks : NoNull samples used in CRC calculations : YesUsed interface : Installed external ASPI interface
Used output format : User Defined EncoderSelected bitrate : 1024 kBit/sQuality : HighAdd ID3 tag : NoCommand line compressor : C:\Program Files\FLAC\flac.exeAdditional command line options : -V -8 -T "Date=%year%" -T "Genre=%genre%" -T"COMMENT=Ripped by Ilijan [MeTaLMaDNeSS.TeaM]" -8 -V %source%
TOC of the extracted CD
Track | Start | Length | Start sector | End sector --------------------------------------------------------- 1 | 0:00.00 | 2:44.12 | 0 | 12311 2 | 2:44.12 | 5:38.36 | 12312 | 37697 3 | 8:22.48 | 5:49.17 | 37698 | 63889 4 | 14:11.65 | 5:41.59 | 63890 | 89523 5 | 19:53.49 | 1:59.36 | 89524 | 98484 6 | 21:53.10 | 3:48.10 | 98485 | 115594 7 | 25:41.20 | 1:03.00 | 115595 | 120319 8 | 26:44.20 | 4:52.68 | 120320 | 142287 9 | 31:37.13 | 7:38.47 | 142288 | 176684 10 | 39:15.60 | 3:16.54 | 176685 | 191438 11 | 42:32.39 | 5:35.59 | 191439 | 216622 12 | 48:08.23 | 4:21.09 | 216623 | 236206 13 | 52:29.32 | 6:57.34 | 236207 | 267515
Range status and errors
Selected range
Filename D:\Delirium\Sadauk - A New Dawn.wav
Peak level 96.6 % Extraction speed 4.0 X Range quality 100.0 % Test CRC 196AD428 Copy CRC 196AD428 Copy OK
No errors occurred
AccurateRip summary
Track 1 not present in databaseTrack 2 not present in databaseTrack 3 not present in databaseTrack 4 not present in databaseTrack 5 not present in databaseTrack 6 not present in databaseTrack 7 not present in databaseTrack 8 not present in databaseTrack 9 not present in databaseTrack 10 not present in databaseTrack 11 not present in databaseTrack 12 not present in databaseTrack 13 not present in database
None of the tracks are present in the AccurateRip database
End of status report
---- CUETools DB Plugin V2.1.6
[CTDB TOCID: G_bZjOzrKIqlqmJ_OP6kOJPkaQI-] foundSubmit result: G_bZjOzrKIqlqmJ_OP6kOJPkaQI- has been confirmedTrack | CTDB Status 1 | (1/1) Accurately ripped 2 | (1/1) Accurately ripped 3 | (1/1) Accurately ripped 4 | (1/1) Accurately ripped 5 | (1/1) Accurately ripped 6 | (1/1) Accurately ripped 7 | (1/1) Accurately ripped 8 | (1/1) Accurately ripped 9 | (1/1) Accurately ripped 10 | (1/1) Accurately ripped 11 | (1/1) Accurately ripped 12 | (1/1) Accurately ripped 13 | (1/1) Accurately ripped
==== Log checksum FFC1AB746F9D2C99C1C4684DC1EEA6838EF48185CD5999301C079426CE547514 ====
-

If you like the topic, please click share to help develop our site.

To download the file disable ad blocking, and reload the page.

disable adblock How to disable ad blocking?

Download by magnet link 504 MB Download Torrent

Login using:

Similar topics

(Symphonic Heavy Metal) Chaos Factory - Horizon (2CD) - 2019, MP3, 320 kbps
 173 MB   0 | 0   20-Apr-19 03:19   0


   
Current time is: 25-Jun 11:14 :: All times are UTC + 3