Hibria

Moving Ground




• Жанр: Power Metal
• Носитель: CD
• Год издания: 2018
• Издатель: King Rec. Japan
• Номер по каталогу: KICP 1887
• Страна: Brazil
• Аудиокодек: FLAC (*.flac)
• Тип рипа: image+.cue
• Продолжительность: 00:56:34
• Источник: Ilijan
• Наличие сканов: да

01. Moving Ground {00:04:45}
02. A Life For Yourself {00:05:12}
03. The Shapeshifter {00:04:11}
04. Scream And Shout {00:05:39}
05. Sailing Ship {00:05:54}
06. Souls Ain't For Sale {00:06:39}
07. So Damn Unkind {00:05:29}
08. Safe Shore {00:04:51}
09. Heaven {00:07:45}
10. Reset My Brain (Bonus Track) {00:06:04}
-

• Содержание индексной карты •

REM GENRE "Power Metal"REM DATE 2018REM DISCID 900D420AREM COMMENT "ExactAudioCopy v1.3"PERFORMER "Hibria"TITLE "Moving Ground (Japan)"FILE "Hibria - Moving Ground (Japan).flac" WAVE  TRACK 01 AUDIO    TITLE "Moving Ground"    PERFORMER "Hibria"    INDEX 01 00:00:00  TRACK 02 AUDIO    TITLE "A Life For Yourself"    PERFORMER "Hibria"    INDEX 01 04:45:09  TRACK 03 AUDIO    TITLE "The Shapeshifter"    PERFORMER "Hibria"    INDEX 01 09:57:10  TRACK 04 AUDIO    TITLE "Scream And Shout"    PERFORMER "Hibria"    INDEX 01 14:08:72  TRACK 05 AUDIO    TITLE "Sailing Ship"    PERFORMER "Hibria"    INDEX 01 19:48:59  TRACK 06 AUDIO    TITLE "Souls Ain't For Sale"    PERFORMER "Hibria"    INDEX 00 25:43:28    INDEX 01 25:43:56  TRACK 07 AUDIO    TITLE "So Damn Unkind"    PERFORMER "Hibria"    INDEX 01 32:23:49  TRACK 08 AUDIO    TITLE "Safe Shore"    PERFORMER "Hibria"    INDEX 01 37:53:39  TRACK 09 AUDIO    TITLE "Heaven"    PERFORMER "Hibria"    INDEX 01 42:45:03  TRACK 10 AUDIO    TITLE "Reset My Brain (Bonus Track)"    PERFORMER "Hibria"    INDEX 01 50:30:38
-

• Лог создания рипа •

Exact Audio Copy V1.3 from 2. September 2016
EAC extraction logfile from 10. March 2018, 22:41
Hibria / Moving Ground (Japan)
Used drive : ATAPI iHAS122 W Adapter: 2 ID: 0
Read mode : SecureUtilize accurate stream : YesDefeat audio cache : YesMake use of C2 pointers : No
Read offset correction : 48Overread into Lead-In and Lead-Out : NoFill up missing offset samples with silence : YesDelete leading and trailing silent blocks : NoNull samples used in CRC calculations : YesUsed interface : Installed external ASPI interface
Used output format : User Defined EncoderSelected bitrate : 1024 kBit/sQuality : HighAdd ID3 tag : NoCommand line compressor : C:\Program Files\FLAC\flac.exeAdditional command line options : -V -8 -T "Date=%year%" -T "Genre=%genre%" -T"COMMENT=Ripped by Ilijan [MeTaLMaDNeSS.TeaM]" -8 -V %source%
TOC of the extracted CD
Track | Start | Length | Start sector | End sector --------------------------------------------------------- 1 | 0:00.00 | 4:45.09 | 0 | 21383 2 | 4:45.09 | 5:12.01 | 21384 | 44784 3 | 9:57.10 | 4:11.62 | 44785 | 63671 4 | 14:08.72 | 5:39.62 | 63672 | 89158 5 | 19:48.59 | 5:54.72 | 89159 | 115780 6 | 25:43.56 | 6:39.68 | 115781 | 145773 7 | 32:23.49 | 5:29.65 | 145774 | 170513 8 | 37:53.39 | 4:51.39 | 170514 | 192377 9 | 42:45.03 | 7:45.35 | 192378 | 227287 10 | 50:30.38 | 6:04.30 | 227288 | 254617
Range status and errors
Selected range
Filename D:\Delirium\Hibria - Moving Ground (Japan).wav
Peak level 97.0 % Extraction speed 3.9 X Range quality 100.0 % Test CRC DFF8DB0B Copy CRC DFF8DB0B Copy OK
No errors occurred
AccurateRip summary
Track 1 not present in databaseTrack 2 not present in databaseTrack 3 not present in databaseTrack 4 not present in databaseTrack 5 not present in databaseTrack 6 not present in databaseTrack 7 not present in databaseTrack 8 not present in databaseTrack 9 not present in databaseTrack 10 not present in database
None of the tracks are present in the AccurateRip database
End of status report
---- CUETools DB Plugin V2.1.6
[CTDB TOCID: wxKPO_iXqfPztvf5uPnvMhBIXQc-] foundSubmit result: wxKPO_iXqfPztvf5uPnvMhBIXQc- has been confirmedTrack | CTDB Status 1 | (7/7) Accurately ripped 2 | (7/7) Accurately ripped 3 | (7/7) Accurately ripped 4 | (7/7) Accurately ripped 5 | (7/7) Accurately ripped 6 | (7/7) Accurately ripped 7 | (7/7) Accurately ripped 8 | (7/7) Accurately ripped 9 | (7/7) Accurately ripped 10 | (7/7) Accurately ripped
==== Log checksum 324E09B8536554545BF13B5960D3281FC1E09F3871A30996A6BE567B5BF59F0C ====
-

If you like the topic, please click share to help develop our site.

To download the file disable ad blocking, and reload the page.

disable adblock How to disable ad blocking?

Download by magnet link 505 MB Download Torrent

Login using:

Similar topics



   
Current time is: 20-Jul 10:43 :: All times are UTC + 3