Adrastea

Pathetic Bluemoon




• Жанр: Power Metal
• Носитель: CD
• Год издания: 2018
• Издатель: Black-listed Productions
• Номер по каталогу: BLRC00105
• Страна: Japan
• Аудиокодек: FLAC (*.flac)
• Тип рипа: image+.cue
• Продолжительность: 00:26:40
• Источник: Ilijan
• Наличие сканов: да

01. Pathetic Bluemoon {00:01:39}
02. Birth Of Alect {00:05:21}
03. Twilight Cat (Album Version) {00:04:34}
04. Latent Blaze {00:05:01}
05. The Flag Of Prayer (Album Version) {00:04:21}
06. Wind Transporter {00:05:42}
-

• Содержание индексной карты •

REM GENRE "Power Metal"REM DATE 2018REM DISCID 4C064006REM COMMENT "ExactAudioCopy v1.3"PERFORMER "Adrastea"TITLE "Pathetic Bluemoon"FILE "Adrastea - Pathetic Bluemoon.flac" WAVE  TRACK 01 AUDIO    TITLE "Pathetic Bluemoon"    PERFORMER "Adrastea"    INDEX 01 00:00:00  TRACK 02 AUDIO    TITLE "Birth Of Alect"    PERFORMER "Adrastea"    INDEX 01 01:39:42  TRACK 03 AUDIO    TITLE "Twilight Cat (Album Version)"    PERFORMER "Adrastea"    INDEX 01 07:00:51  TRACK 04 AUDIO    TITLE "Latent Blaze"    PERFORMER "Adrastea"    INDEX 01 11:34:62  TRACK 05 AUDIO    TITLE "The Flag Of Prayer (Album Version)"    PERFORMER "Adrastea"    INDEX 01 16:36:16  TRACK 06 AUDIO    TITLE "Wind Transporter"    PERFORMER "Adrastea"    INDEX 01 20:57:23
-

• Лог создания рипа •

Exact Audio Copy V1.3 from 2. September 2016
EAC extraction logfile from 10. March 2018, 22:07
Adrastea / Pathetic Bluemoon
Used drive : ATAPI iHAS122 W Adapter: 2 ID: 0
Read mode : SecureUtilize accurate stream : YesDefeat audio cache : YesMake use of C2 pointers : No
Read offset correction : 48Overread into Lead-In and Lead-Out : NoFill up missing offset samples with silence : YesDelete leading and trailing silent blocks : NoNull samples used in CRC calculations : YesUsed interface : Installed external ASPI interface
Used output format : User Defined EncoderSelected bitrate : 1024 kBit/sQuality : HighAdd ID3 tag : NoCommand line compressor : C:\Program Files\FLAC\flac.exeAdditional command line options : -V -8 -T "Date=%year%" -T "Genre=%genre%" -T"COMMENT=Ripped by Ilijan [MeTaLMaDNeSS.TeaM]" -8 -V %source%
TOC of the extracted CD
Track | Start | Length | Start sector | End sector --------------------------------------------------------- 1 | 0:00.00 | 1:39.42 | 0 | 7466 2 | 1:39.42 | 5:21.09 | 7467 | 31550 3 | 7:00.51 | 4:34.11 | 31551 | 52111 4 | 11:34.62 | 5:01.29 | 52112 | 74715 5 | 16:36.16 | 4:21.07 | 74716 | 94297 6 | 20:57.23 | 5:42.66 | 94298 | 120013
Range status and errors
Selected range
Filename D:\Delirium\Adrastea - Pathetic Bluemoon.wav
Peak level 99.9 % Extraction speed 3.2 X Range quality 100.0 % Test CRC F65ADA16 Copy CRC F65ADA16 Copy OK
No errors occurred
AccurateRip summary
Track 1 not present in databaseTrack 2 not present in databaseTrack 3 not present in databaseTrack 4 not present in databaseTrack 5 not present in databaseTrack 6 not present in database
None of the tracks are present in the AccurateRip database
End of status report
---- CUETools DB Plugin V2.1.6
[CTDB TOCID: MQnMUIx6Z7AM_jCCtEt4eOEYfII-] foundSubmit result: MQnMUIx6Z7AM_jCCtEt4eOEYfII- has been confirmedTrack | CTDB Status 1 | (2/2) Accurately ripped 2 | (2/2) Accurately ripped 3 | (2/2) Accurately ripped 4 | (2/2) Accurately ripped 5 | (2/2) Accurately ripped 6 | (2/2) Accurately ripped
==== Log checksum 36F12A1D8AABD4CC4782ACB31FC1FAD47F3682543DF885358F14EE3570ED8E77 ====
-

If you like the topic, please click share to help develop our site.

To download the file disable ad blocking, and reload the page.

disable adblock How to disable ad blocking?

Download by magnet link 232 MB Download Torrent

Login using:

Similar topics



   
Current time is: 17-Jul 05:26 :: All times are UTC + 3