War Curse

Eradication





• Жанр: Heavy | Thrash Metal
• Носитель: WEB
• Год издания: 2019
• Страна: USA
• Аудиокодек: FLAC (*.flac)
• Тип рипа: tracks
• Продолжительность: 00:43:30
• Источник:
internet
• Наличие сканов: front

01 - Asylum (00:05:10)
02 - Sand of Fate (00:05:44)
03 - Possession (00:04:56)
04 - Serpent (00:05:49)
05 - Iron Veil (00:04:23)
06 - Eradication (00:04:29)
07 - Deadly Silence (00:06:18)
08 - Polluted Minds (00:06:38)
--

• Лог DRM •

foobar2000 1.4.2 / Dynamic Range Meter 1.1.1log date: 2019-05-10 20:53:07
--------------------------------------------------------------------------------Analyzed: War Curse / Eradication--------------------------------------------------------------------------------
DR Peak RMS Duration Track--------------------------------------------------------------------------------DR7 0.00 dB -7.77 dB 5:10 01-AsylumDR7 0.00 dB -7.91 dB 5:44 02-Sand of FateDR7 0.00 dB -7.83 dB 4:57 03-PossessionDR7 0.00 dB -7.74 dB 5:49 04-SerpentDR7 0.00 dB -7.45 dB 4:23 05-Iron VeilDR7 0.00 dB -7.73 dB 4:29 06-EradicationDR7 0.00 dB -7.75 dB 6:18 07-Deadly SilenceDR7 0.00 dB -8.65 dB 6:38 08-Polluted Minds--------------------------------------------------------------------------------
Number of tracks: 8Official DR value: DR7
Samplerate: 44100 HzChannels: 2Bits per sample: 16Bitrate: 982 kbpsCodec: FLAC================================================================================
-

• Лог проверки качества •

-----------------------
DON'T MODIFY THIS FILE
-----------------------
PERFORMER: auCDtect Task Manager, ver. 1.6.0 RC1 build 1.6.0.1Copyright (c) 2008-2010 y-soft. All rights reservedhttp://y-soft.org
ANALYZER: auCDtect: CD records authenticity detector, version 0.8.2Copyright (c) 2004 Oleg Berngardt. All rights reserved.Copyright (c) 2004 Alexander Djourik. All rights reserved.
FILE: 08 - Polluted Minds.flac Size: 48920822 Hash: A319234FA86E4CB083B1F35E23EB1E58 Accuracy: -m8 Conclusion: CDDA 100% Signature: 6DED07079CB842E777DCF8FEF64C01E8499C40E4FILE: 07 - Deadly Silence.flac Size: 50113707 Hash: 0A529997F3A8D3602E2BAE1E68C65B45 Accuracy: -m8 Conclusion: CDDA 100% Signature: E1DDFFB375A1035477FAF9617C6B59952186F9D8FILE: 06 - Eradication.flac Size: 35230276 Hash: DCA3ED3BF52451FE8712B8187C4822EA Accuracy: -m8 Conclusion: CDDA 100% Signature: 270EDF0D99C63EF6D16098BB941E15F3F6BAAF48FILE: 05 - Iron Veil.flac Size: 35218590 Hash: 87699CC391269FB24FA145689E8B219E Accuracy: -m8 Conclusion: CDDA 100% Signature: C1F20C9D987EFB7A66131A543396F45757AEFF55FILE: 04 - Serpent.flac Size: 45234689 Hash: 4BF39989262C4978224C738A5BCC565F Accuracy: -m8 Conclusion: CDDA 99% Signature: F018ADD33B75B04A761E99A27DCB6975B282BEC9FILE: 03 - Possession.flac Size: 38023771 Hash: 79E9B40B92DC0964DA62BD578C8A942E Accuracy: -m8 Conclusion: CDDA 100% Signature: 7F8D8D279C67C9D4860154BCC153A61015993106FILE: 02 - Sand of Fate.flac Size: 43615694 Hash: 52810C27F7CAD73E574711A27F78894F Accuracy: -m8 Conclusion: CDDA 100% Signature: E57FF210260AEC9993F5E847B68B5AB4928D4835FILE: 01 - Asylum.flac Size: 40038703 Hash: FD6CE2939A2CAF80C0596A5A14E1130F Accuracy: -m8 Conclusion: CDDA 100% Signature: 3184A966BB3735AF7FAEB7F2AE54584CC91A36B3
-

If you like the topic, please click share to help develop our site.

To download the file disable ad blocking, and reload the page.

disable adblock How to disable ad blocking?

Download by magnet link 321 MB Download Torrent

Login using:

Similar topics

(Heavy Metal/Thrash) Daggerose - Tombkeeper - 2019, MP3, 320 kbps
 107 MB   0 | 0   06-Jul-19 02:20   3
(Heavy Thrash Metal) Kryptos - Afterburner - 2019, MP3, 320 kbps
 93 MB   0 | 0   20-Jun-19 20:20   6
(Heavy | Thrash Metal) Darksider - Darksider - 2019, MP3, 320 kbps
 119 MB   0 | 0   19-Jun-19 00:05   2


   
Current time is: 17-Jul 05:53 :: All times are UTC + 3