The Well

Death and Consolation





• Жанр: Psychedelic Doom | Stoner Metal
• Носитель: WEB
• Год издания: 2019
• Страна: USA
• Аудиокодек: FLAC (*.flac)
• Тип рипа: tracks
• Продолжительность: 00:42:27
• Источник:
internet
• Наличие сканов: front

01 - Sabbah (00:03:49)
02 - Raven (00:03:52)
03 - Death Song (00:04:48)
04 - Cup of Peace (00:04:30)
05 - Eyes of a God (00:03:41)
06 - Act II (00:06:32)
07 - Freedom Above (00:04:03)
08 - This Is How The World Ends (00:04:53)
09 - Endless Night (00:06:16)
--

• Лог DRM •

foobar2000 1.4.2 / Dynamic Range Meter 1.1.1log date: 2019-05-11 18:37:06
--------------------------------------------------------------------------------Analyzed: The Well / Death and Consolation--------------------------------------------------------------------------------
DR Peak RMS Duration Track--------------------------------------------------------------------------------DR6 -0.01 dB -7.55 dB 3:49 01-SabbahDR7 -0.01 dB -8.18 dB 3:52 02-RavenDR6 -0.01 dB -7.76 dB 4:49 03-Death SongDR7 -0.01 dB -7.80 dB 4:30 04-Cup of PeaceDR6 -0.01 dB -8.23 dB 3:41 05-Eyes of a GodDR7 -0.01 dB -7.87 dB 6:32 06-Act IIDR5 -0.01 dB -6.08 dB 4:04 07-Freedom AboveDR7 -0.01 dB -8.22 dB 4:53 08-This Is How The World EndsDR6 -0.01 dB -7.91 dB 6:17 09-Endless Night--------------------------------------------------------------------------------
Number of tracks: 9Official DR value: DR6
Samplerate: 44100 HzChannels: 2Bits per sample: 16Bitrate: 925 kbpsCodec: FLAC================================================================================
-

• Лог проверки качества •

-----------------------
DON'T MODIFY THIS FILE
-----------------------
PERFORMER: auCDtect Task Manager, ver. 1.6.0 RC1 build 1.6.0.1Copyright (c) 2008-2010 y-soft. All rights reservedhttp://y-soft.org
ANALYZER: auCDtect: CD records authenticity detector, version 0.8.2Copyright (c) 2004 Oleg Berngardt. All rights reserved.Copyright (c) 2004 Alexander Djourik. All rights reserved.
FILE: 09 - Endless Night.flac Size: 43831615 Hash: 60DA921A0A506FF7BB7C65586CF2DE86 Accuracy: -m8 Conclusion: CDDA 100% Signature: 65E858EC94BC637FE807FFA38E7B2B82AE89563DFILE: 08 - This Is How The World Ends.flac Size: 35384020 Hash: 3C71D12E5C2D33F8C27A1136ECABF0D5 Accuracy: -m8 Conclusion: CDDA 100% Signature: BE4FC4BA7B23F91BDF5904EC5B3832820EA65C6FFILE: 07 - Freedom Above.flac Size: 26830117 Hash: F1E28043E9BBEB9D4B3BDF2376FC042A Accuracy: -m8 Conclusion: CDDA 99% Signature: 20A8C6B8074580B23A6304BB4002D7297BFFDCC3FILE: 06 - Act II.flac Size: 48236695 Hash: 0F056E1B794CF6044EE7FBAF8730D6FB Accuracy: -m8 Conclusion: CDDA 100% Signature: 6C807CD619D7DC914AB09D1E6804629EE2CD9D38FILE: 05 - Eyes of a God.flac Size: 26590002 Hash: C84573452699729020DFC898C3D6B788 Accuracy: -m8 Conclusion: CDDA 100% Signature: 137A31F51E274A1B3B674A12FBA46027194C1801FILE: 04 - Cup of Peace.flac Size: 32629233 Hash: C5DAD3BF5D7AD55CFAE22421757D3162 Accuracy: -m8 Conclusion: CDDA 100% Signature: DDAF1656E401D97B2686C7D0A630CD2D1C22F52BFILE: 03 - Death Song.flac Size: 33182137 Hash: B1819B5C57808AAA23D5C06CDE94A57D Accuracy: -m8 Conclusion: CDDA 100% Signature: 401EB2B97DB7CB6119029ED6590814E0F2B7FBB0FILE: 02 - Raven.flac Size: 27202196 Hash: 0252F7F38ABA7D6650110DD8A276416D Accuracy: -m8 Conclusion: CDDA 100% Signature: E4113D017AA7F40726615E5F17CE5481C9E3AC91FILE: 01 - Sabbah.flac Size: 26949410 Hash: 359285519FDAB37C31DE54F162A31B43 Accuracy: -m8 Conclusion: CDDA 100% Signature: 9585F017F2E08ECFA24FA0AB6C796BBFC4AE834E
-

• Band •

-

If you like the topic, please click share to help develop our site.

To download the file disable ad blocking, and reload the page.

disable adblock How to disable ad blocking?

Download by magnet link 287 MB Download Torrent

Login using:

Similar topics

(Psychedelic Sludge | Doom Metal) Nibiru - Salbrox - 2019, MP3, 320 kbps
 149 MB   0 | 0   12-May-19 01:25   1


   
Current time is: 20-Jul 10:13 :: All times are UTC + 3